Поиск

1960 (1993) Dizzy Gillespie - Gillespiana and Carnegie Hall Concert

1960 (1993) Dizzy Gillespie - Gillespiana and Carnegie Hall Concert
Страна-производитель диска (релиза):
USA
Дата записи диска:
14 ноября 1960 - 4 марта 1961
Дата издания диска:
19 октября 1993
Издатель (лейбл):
Номер по каталогу:
314 519 809-2
Носитель:
CD
Битрейт аудио:
lossless
Аудиокодек:
FLAC (*.flac)
Тип рипа:
tracks+.cue
Время звучания:
01:15:09
Наличие сканов:
  • да
Релизёр (источник):
Stormhunter
Лог создания рипа
EAC extraction logfile from 10. January 2006, 16:58 for CD
Dizzy Gillespie / Gillespiana and Carnegie Hall Concert
Used drive : PLEXTOR CD-R PX-W8432T Adapter: 0 ID: 1
Read mode : Secure with NO C2, accurate stream, disable cache
Read offset correction : 355
Overread into Lead-In and Lead-Out : Yes
Used output format : c:\Program Files\Exact Audio Copy\flac.exe (User Defined Encoder)
320 kBit/s
Additional command line options : -8 -V -T "ARTIST=%a" -T "TITLE=%t" -T "ALBUM=%g" -T "DATE=%y" -T "TRACKNUMBER=%n" -T "GENRE=%m" -T "COMMENT=EAC 0.95b3 Secure/FLAC 1.1.2 -8 -V" %s
Other options :
Fill up missing offset samples with silence : Yes
Delete leading and trailing silent blocks : No
Native Win32 interface for Win NT & 2000
Track 1
Filename i:\audio\lossless\Dizzy Gillespie - Gillespiana and Carnegie Hall Concert (1960) [FLAC]\01 - Prelude.wav
Pre-gap length 0:00:02.42
Peak level 94.2 %
Track quality 100.0 %
Test CRC 87D90FB4
Copy CRC 87D90FB4
Copy OK
Track 2
Filename i:\audio\lossless\Dizzy Gillespie - Gillespiana and Carnegie Hall Concert (1960) [FLAC]\02 - Blues.wav
Pre-gap length 0:00:03.53
Peak level 99.0 %
Track quality 100.0 %
Test CRC 2C1E96E4
Copy CRC 2C1E96E4
Copy OK
Track 3
Filename i:\audio\lossless\Dizzy Gillespie - Gillespiana and Carnegie Hall Concert (1960) [FLAC]\03 - Panamerica.wav
Pre-gap length 0:00:03.16
Peak level 90.0 %
Track quality 100.0 %
Test CRC 28588D81
Copy CRC 28588D81
Copy OK
Track 4
Filename i:\audio\lossless\Dizzy Gillespie - Gillespiana and Carnegie Hall Concert (1960) [FLAC]\04 - Africana.wav
Pre-gap length 0:00:02.86
Peak level 93.7 %
Track quality 100.0 %
Test CRC D49B34F1
Copy CRC D49B34F1
Copy OK
Track 5
Filename i:\audio\lossless\Dizzy Gillespie - Gillespiana and Carnegie Hall Concert (1960) [FLAC]\05 - Toccata.wav
Pre-gap length 0:00:03.84
Peak level 89.3 %
Track quality 99.9 %
Test CRC 791A3158
Copy CRC 791A3158
Copy OK
Track 6
Filename i:\audio\lossless\Dizzy Gillespie - Gillespiana and Carnegie Hall Concert (1960) [FLAC]\06 - Manteca.wav
Pre-gap length 0:00:03.86
Peak level 98.4 %
Track quality 100.0 %
Test CRC 58DF0D5D
Copy CRC 58DF0D5D
Copy OK
Track 7
Filename i:\audio\lossless\Dizzy Gillespie - Gillespiana and Carnegie Hall Concert (1960) [FLAC]\07 - This is the Way.wav
Pre-gap length 0:00:02.62
Peak level 80.1 %
Track quality 99.9 %
Test CRC BEA0EF80
Copy CRC BEA0EF80
Copy OK
Track 8
Filename i:\audio\lossless\Dizzy Gillespie - Gillespiana and Carnegie Hall Concert (1960) [FLAC]\08 - Ool Ya Koo.wav
Pre-gap length 0:00:00.06
Peak level 96.2 %
Track quality 100.0 %
Test CRC A41E8305
Copy CRC A41E8305
Copy OK
Track 9
Filename i:\audio\lossless\Dizzy Gillespie - Gillespiana and Carnegie Hall Concert (1960) [FLAC]\09 - Kush.wav
Pre-gap length 0:00:02.82
Peak level 83.7 %
Track quality 100.0 %
Test CRC 94A59535
Copy CRC 94A59535
Copy OK
Track 10
Filename i:\audio\lossless\Dizzy Gillespie - Gillespiana and Carnegie Hall Concert (1960) [FLAC]\10 - Tunisian Fantasy.wav
Pre-gap length 0:00:02.22
Peak level 78.0 %
Track quality 99.9 %
Test CRC EC4BF9FD
Copy CRC EC4BF9FD
Copy OK
No errors occured
End of status report
Приватный:
Нет (DHT включён)
Размер:
491.39 Мб (515,255,293 байт) » файлов: 29
Участники:
0 раздают, 0 качают (0 участников всего)
Внешние участники:
1 раздают, 0 качают (1 участников всего) [ Обновить ]
10:22
142
RSS
Нет комментариев. Ваш будет первым!