Поиск

1959 (1999) Henry Mancini – The Music from Peter Gunn {Buddha 74465996102}

1959 (1999) Henry Mancini – The Music from Peter Gunn {Buddha 74465996102}
Дата издания диска:
1959
Дата переиздания диска:
1999
Издатель (лейбл):
Номер по каталогу:
74465996102
Носитель:
CD
Битрейт аудио:
lossless
Аудиокодек:
FLAC (*.flac)
Тип рипа:
tracks+.cue
Время звучания:
39:52
Наличие сканов:
  • нет
Релизёр (источник):
what.cd

01. Peter Gunn (2:07)
02. Sorta Blue (2:58)
03. The Brothers Go to Mother's (2:57)
04. Dreamsville (3:56)
05. Session at Pete's Pad (4:01)
06. Soft Sounds (3:36)
07. Fallout! (3:16)
08. The Floater (3:19)
09. Slow and Easy (3:07)
10. A Profound Gass (3:21)
11. Brief and Breezy (3:33)
12. Not from Dixie (4:11)
Bonus tracks
13. Walkin' Bass (4:24)
14. Blue Steel (3:45)
15. Spook! (3:00)
16. Blues for Mother's (3:19)

Лог создания рипа
Exact Audio Copy V1.0 beta 2 from 29. April 2011

EAC extraction logfile from 28. December 2011, 6:13

Henry Mancini / The Music from Peter Gunn

Used drive  : ASUS    DRW-2014L1T   Adapter: 0  ID: 0

Read mode               : Secure
Utilize accurate stream : Yes
Defeat audio cache      : Yes
Make use of C2 pointers : No

Read offset correction                      : 6
Overread into Lead-In and Lead-Out          : No
Fill up missing offset samples with silence : Yes
Delete leading and trailing silent blocks   : No
Null samples used in CRC calculations       : Yes
Used interface                              : Native Win32 interface for Win NT & 2000
Gap handling                                : Appended to previous track

Used output format              : User Defined Encoder
Selected bitrate                : 128 kBit/s
Quality                         : High
Add ID3 tag                     : No
Command line compressor         : C:\Program Files (x86)\Exact Audio Copy\Flac\flac.exe
Additional command line options : -8 -V -T "ARTIST=%artist%" -T "TITLE=%title%" -T "ALBUM=%albumtitle%" -T "DATE=%year%" -T "TRACKNUMBER=%tracknr%" -T "GENRE=%genre%" -T "PERFORMER=%albuminterpret%" -T "COMPOSER=%composer%" %haslyrics%--tag-from-file=LYRICS

TOC of the extracted CD

     Track |   Start  |  Length  | Start sector | End sector
    ---------------------------------------------------------
        1  |  0:00.00 |  2:07.35 |         0    |     9559
        2  |  2:07.35 |  2:58.20 |      9560    |    22929
        3  |  5:05.55 |  2:57.00 |     22930    |    36204
        4  |  8:02.55 |  3:56.17 |     36205    |    53921
        5  | 11:58.72 |  4:00.60 |     53922    |    71981
        6  | 15:59.57 |  3:35.58 |     71982    |    88164
        7  | 19:35.40 |  3:16.27 |     88165    |   102891
        8  | 22:51.67 |  3:18.40 |    102892    |   117781
        9  | 26:10.32 |  3:07.05 |    117782    |   131811
       10  | 29:17.37 |  3:20.63 |    131812    |   146874
       11  | 32:38.25 |  3:33.37 |    146875    |   162886
       12  | 36:11.62 |  4:10.70 |    162887    |   181706
       13  | 40:22.57 |  4:24.13 |    181707    |   201519
       14  | 44:46.70 |  3:44.60 |    201520    |   218379
       15  | 48:31.55 |  2:59.60 |    218380    |   231864
       16  | 51:31.40 |  3:19.27 |    231865    |   246816

Track  1

     Filename d:\wave dumps\01 - Peter Gunn.wav

     Pre-gap length  0:00:02.00

     Peak level 95.9 %
     Extraction speed 3.4 X
     Track quality 99.9 %
     Test CRC 86C9CD4B
     Copy CRC 86C9CD4B
     Accurately ripped (confidence 16)  [235B47AE]  (AR v1)
     Copy OK

Track  2

     Filename d:\wave dumps\02 - Sorta Blue.wav

     Pre-gap length  0:00:01.13

     Peak level 96.4 %
     Extraction speed 4.1 X
     Track quality 99.9 %
     Test CRC 1A2031CF
     Copy CRC 1A2031CF
     Accurately ripped (confidence 16)  [DCB75AA4]  (AR v1)
     Copy OK

Track  3

     Filename d:\wave dumps\03 - The Brothers Go to Mother's.wav

     Pre-gap length  0:00:01.44

     Peak level 79.3 %
     Extraction speed 6.0 X
     Track quality 100.0 %
     Test CRC B44F89D6
     Copy CRC B44F89D6
     Accurately ripped (confidence 16)  [C2E3B4B3]  (AR v1)
     Copy OK

Track  4

     Filename d:\wave dumps\04 - Dreamsville.wav

     Pre-gap length  0:00:01.44

     Peak level 75.1 %
     Extraction speed 6.7 X
     Track quality 100.0 %
     Test CRC 4DEF4E06
     Copy CRC 4DEF4E06
     Accurately ripped (confidence 16)  [93A58253]  (AR v1)
     Copy OK

Track  5

     Filename d:\wave dumps\05 - Session at Pete's Pad.wav

     Pre-gap length  0:00:00.36

     Peak level 94.0 %
     Extraction speed 7.1 X
     Track quality 100.0 %
     Test CRC 13E1B666
     Copy CRC 13E1B666
     Accurately ripped (confidence 16)  [AB4EE1C0]  (AR v1)
     Copy OK

Track  6

     Filename d:\wave dumps\06 - Soft Sounds.wav

     Pre-gap length  0:00:01.06

     Peak level 57.1 %
     Extraction speed 5.4 X
     Track quality 99.9 %
     Test CRC 4EDCEF62
     Copy CRC 4EDCEF62
     Accurately ripped (confidence 16)  [5D2F9B83]  (AR v1)
     Copy OK

Track  7

     Filename d:\wave dumps\07 - Fallout!.wav

     Pre-gap length  0:00:00.73

     Peak level 86.9 %
     Extraction speed 7.5 X
     Track quality 100.0 %
     Test CRC 1A61899A
     Copy CRC 1A61899A
     Accurately ripped (confidence 16)  [95FF5F8A]  (AR v1)
     Copy OK

Track  8

     Filename d:\wave dumps\08 - The Floater.wav

     Pre-gap length  0:00:00.29

     Peak level 81.1 %
     Extraction speed 5.7 X
     Track quality 99.9 %
     Test CRC 27C755F0
     Copy CRC 27C755F0
     Accurately ripped (confidence 16)  [C3CE5631]  (AR v1)
     Copy OK

Track  9

     Filename d:\wave dumps\09 - Slow and Easy.wav

     Pre-gap length  0:00:00.62

     Peak level 94.8 %
     Extraction speed 8.0 X
     Track quality 100.0 %
     Test CRC 05B1C483
     Copy CRC 05B1C483
     Accurately ripped (confidence 16)  [D0AB1EF5]  (AR v1)
     Copy OK

Track 10

     Filename d:\wave dumps\10 - A Profound Gass.wav

     Pre-gap length  0:00:01.20

     Peak level 78.7 %
     Extraction speed 6.1 X
     Track quality 99.9 %
     Test CRC 4B3F4B35
     Copy CRC 4B3F4B35
     Accurately ripped (confidence 16)  [4D0F10C5]  (AR v1)
     Copy OK

Track 11

     Filename d:\wave dumps\11 - Brief and Breezy.wav

     Pre-gap length  0:00:01.04

     Peak level 82.4 %
     Extraction speed 8.6 X
     Track quality 100.0 %
     Test CRC 36C8BD15
     Copy CRC 36C8BD15
     Accurately ripped (confidence 16)  [D17D8B58]  (AR v1)
     Copy OK

Track 12

     Filename d:\wave dumps\12 - Not from Dixie.wav

     Pre-gap length  0:00:00.53

     Peak level 95.3 %
     Extraction speed 9.3 X
     Track quality 100.0 %
     Test CRC 323FEB3A
     Copy CRC 323FEB3A
     Accurately ripped (confidence 16)  [8A889377]  (AR v1)
     Copy OK

Track 13

     Filename d:\wave dumps\13 - Walkin' Bass.wav

     Pre-gap length  0:00:00.66

     Peak level 93.8 %
     Extraction speed 9.6 X
     Track quality 100.0 %
     Test CRC D428CB1A
     Copy CRC D428CB1A
     Accurately ripped (confidence 16)  [AD7BF1BC]  (AR v1)
     Copy OK

Track 14

     Filename d:\wave dumps\14 - Blue Steel.wav

     Pre-gap length  0:00:00.64

     Peak level 97.3 %
     Extraction speed 9.6 X
     Track quality 100.0 %
     Test CRC FA864658
     Copy CRC FA864658
     Accurately ripped (confidence 16)  [75E6C9B6]  (AR v1)
     Copy OK

Track 15

     Filename d:\wave dumps\15 - Spook!.wav

     Pre-gap length  0:00:00.97

     Peak level 97.0 %
     Extraction speed 9.4 X
     Track quality 100.0 %
     Test CRC 50032978
     Copy CRC 50032978
     Accurately ripped (confidence 16)  [476A5FDE]  (AR v1)
     Copy OK

Track 16

     Filename d:\wave dumps\16 - Blues for Mother's.wav

     Pre-gap length  0:00:00.73

     Peak level 93.7 %
     Extraction speed 9.9 X
     Track quality 100.0 %
     Test CRC F6223C9C
     Copy CRC F6223C9C
     Accurately ripped (confidence 16)  [EEEFC751]  (AR v1)
     Copy OK

All tracks accurately ripped

No errors occurred

End of status report

==== Log checksum B13B80B5587A6A60706EEFB38DA9C742107DADC71E2A918929B5A92DB333CDAB ====
Содержание индексной карты (.CUE)
REM GENRE Jazz
REM DATE 1959
REM DISCID E30CDA10
REM COMMENT "ExactAudioCopy v1.0b2"
PERFORMER "Henry Mancini"
TITLE "The Music from Peter Gunn"
FILE "01 - Peter Gunn.wav" WAVE
  TRACK 01 AUDIO
    TITLE "Peter Gunn"
    PERFORMER "Henry Mancini"
    INDEX 01 00:00:00
  TRACK 02 AUDIO
    TITLE "Sorta Blue"
    PERFORMER "Henry Mancini"
    INDEX 00 02:06:25
FILE "02 - Sorta Blue.wav" WAVE
    INDEX 01 00:00:00
  TRACK 03 AUDIO
    TITLE "The Brothers Go to Mother's"
    PERFORMER "Henry Mancini"
    INDEX 00 02:56:62
FILE "03 - The Brothers Go to Mother's.wav" WAVE
    INDEX 01 00:00:00
  TRACK 04 AUDIO
    TITLE "Dreamsville"
    PERFORMER "Henry Mancini"
    INDEX 00 02:55:42
FILE "04 - Dreamsville.wav" WAVE
    INDEX 01 00:00:00
  TRACK 05 AUDIO
    TITLE "Session at Pete's Pad"
    PERFORMER "Henry Mancini"
    INDEX 00 03:55:65
FILE "05 - Session at Pete's Pad.wav" WAVE
    INDEX 01 00:00:00
  TRACK 06 AUDIO
    TITLE "Soft Sounds"
    PERFORMER "Henry Mancini"
    INDEX 00 03:59:55
FILE "06 - Soft Sounds.wav" WAVE
    INDEX 01 00:00:00
  TRACK 07 AUDIO
    TITLE "Fallout!"
    PERFORMER "Henry Mancini"
    INDEX 00 03:35:03
FILE "07 - Fallout!.wav" WAVE
    INDEX 01 00:00:00
  TRACK 08 AUDIO
    TITLE "The Floater"
    PERFORMER "Henry Mancini"
    INDEX 00 03:16:05
FILE "08 - The Floater.wav" WAVE
    INDEX 01 00:00:00
  TRACK 09 AUDIO
    TITLE "Slow and Easy"
    PERFORMER "Henry Mancini"
    INDEX 00 03:17:68
FILE "09 - Slow and Easy.wav" WAVE
    INDEX 01 00:00:00
  TRACK 10 AUDIO
    TITLE "A Profound Gass"
    PERFORMER "Henry Mancini"
    INDEX 00 03:05:65
FILE "10 - A Profound Gass.wav" WAVE
    INDEX 01 00:00:00
  TRACK 11 AUDIO
    TITLE "Brief and Breezy"
    PERFORMER "Henry Mancini"
    INDEX 00 03:19:60
FILE "11 - Brief and Breezy.wav" WAVE
    INDEX 01 00:00:00
  TRACK 12 AUDIO
    TITLE "Not from Dixie"
    PERFORMER "Henry Mancini"
    INDEX 00 03:32:72
FILE "12 - Not from Dixie.wav" WAVE
    INDEX 01 00:00:00
  TRACK 13 AUDIO
    TITLE "Walkin' Bass"
    PERFORMER "Henry Mancini"
    INDEX 00 04:10:20
FILE "13 - Walkin' Bass.wav" WAVE
    INDEX 01 00:00:00
  TRACK 14 AUDIO
    TITLE "Blue Steel"
    PERFORMER "Henry Mancini"
    INDEX 00 04:23:40
FILE "14 - Blue Steel.wav" WAVE
    INDEX 01 00:00:00
  TRACK 15 AUDIO
    TITLE "Spook!"
    PERFORMER "Henry Mancini"
    INDEX 00 03:43:62
FILE "15 - Spook!.wav" WAVE
    INDEX 01 00:00:00
  TRACK 16 AUDIO
    TITLE "Blues for Mother's"
    PERFORMER "Henry Mancini"
    INDEX 00 02:59:05
FILE "16 - Blues for Mother's.wav" WAVE
    INDEX 01 00:00:00
Скриншот спектра частот
1959 (1999) Henry Mancini – The Music from Peter Gunn {Buddha 74465996102} 01959 (1999) Henry Mancini – The Music from Peter Gunn {Buddha 74465996102} 1
Скачивание доступно после регистрации!!
Приватный:
Нет (DHT включён)
Размер:
318.58 Мб (334,054,991 байт) » файлов: 20
Участники:
0 раздают, 0 качают (0 участников всего)
Внешние участники:
--- [ Обновить ]
23:20
236
RSS
Нет комментариев. Ваш будет первым!