Поиск

2017 Dee Dee Bridgewater - Memphis...Yes, I'm Ready {OKeh, Time Blues 6632873}

2017 Dee Dee Bridgewater - Memphis...Yes, I'm Ready {OKeh, Time Blues 6632873}
Страна-производитель диска (релиза):
Russia
Дата записи диска:
5-11 сентября 2016
Дата издания диска:
15 сентября 2017
Издатель (лейбл):
Номер по каталогу:
6632873
Носитель:
CD
Битрейт аудио:
lossless
Аудиокодек:
FLAC (*.flac)
Тип рипа:
image+.cue
Время звучания:
62'10''
Релизёр (источник):
RedHotBlues
Треклист:

01. Yes, I'm Ready [0:04:57.35]
02. Giving Up [0:04:55.11]
03. I Can't Get Next To You [0:05:16.68]
04. Going Down Slow [0:04:45.66]
05. Why (Am I Treated So Bad) [0:04:36.52]
06. B.A.B.Y. [0:04:04.33]
07. The Thrill Is Gone [0:05:38.16]
08. The Sweeter He Is [0:06:45.09]
09. I Can't Stand the Rain [0:03:06.52]
10. Don't Be Cruel [0:04:40.19]
11. Hound Dog [0:03:38.13]
12. Try a Little Tenderness [0:05:25.20]
13. (Take My Hand) Precious Lord [0:04:18.23]

Состав:
  • Tulani Bridgewater Kowalski    Art Direction, Cover Art, Photography, Producer
  • Dee Dee Bridgewater    Liner Notes, Producer, Vocals
  • Jackie Clark    Bass
  • Marc Franklin    Trumpet
  • Garry Goin    Guitar
  • Charles Hodges    Organ (Hammond)
  • Ted Jensen    Engineer
  • Lannie McMillan    Sax (Tenor)
  • Lawrence "Boo" Mitchell    Cymbals, Electric Bongos, Engineer, Producer, Tambourine
  • Sharisse Norman    Vocals (Background)
  • Candise Rayborn-Marshall    Vocals (Background)
  • James Sexton    Drums
  • Kirk Smothers    Sax (Tenor)
  • Stax Music Academy    Vocals (Background)
  • John Stoddart    Associate Producer, Keyboards, Vocal Arrangement
  • Kameron Whalum    Trombone
  • Kevin Whalum    Vocals (Background)
  • Kirk Whalum    Horn Arrangements, Producer, Sax (Baritone), Sax (Tenor)
Лог создания рипа
Exact Audio Copy V1.3 from 2. September 2016

Отчёт EAC об извлечении, выполненном 7. ноября 2017, 22:57

Dee Dee Bridgewater / Memphis...Yes, I'm Ready

Дисковод: ASUS    DRW-22B3S   Adapter: 1  ID: 3

Режим чтения                 : Достоверность
Использование точного потока : Да
Отключение кэша аудио        : Да
Использование указателей C2  : Нет

Коррекция смещения при чтении                     : 6
Способность читать области Lead-in и Lead-out     : Нет
Заполнение пропущенных сэмплов тишиной            : Да
Удаление блоков с тишиной в начале и конце        : Нет
При вычислениях CRC использовались нулевые сэмплы : Да
Интерфейс                                         : Встроенный Win32-интерфейс для Win NT/2000

Выходной формат          : Пользовательский кодировщик
Выбранный битрейт        : 768 kBit/s
Качество                 : Высокий
Добавление ID3-тега      : Нет
Утилита сжатия           : C:\Program Files\Exact Audio Copy\FLAC\FLAC.EXE
Дополнительные параметры : -6 -V -T "ARTIST=%artist%" -T "TITLE=%title%" -T "ALBUM=%albumtitle%" -T "DATE=%year%" -T "TRACKNUMBER=%tracknr%" -T "GENRE=%genre%" -T "COMMENT=%comment%" -T "BAND=%albuminterpret%" -T "ALBUMARTIST=%albuminterpret%" -T "COMPOSER=%composer%" %haslyrics%--tag-from-file=LYRICS="%lyricsfile%"%haslyrics% -T "DISCNUMBER=%cdnumber%" -T "TOTALDISCS=%totalcds%" -T "TOTALTRACKS=%numtracks%" %hascover%--picture="%coverfile%"%hascover% %source% -o %dest%

TOC извлечённого CD

     Трек |   Старт  | Длительность | Начальный сектор | Конечный сектор
    ---------------------------------------------------------------------
       1  |  0:00.00 |    4:57.35   |           0      |      22309
       2  |  4:57.35 |    4:55.11   |       22310      |      44445
       3  |  9:52.46 |    5:16.68   |       44446      |      68213
       4  | 15:09.39 |    4:45.66   |       68214      |      89654
       5  | 19:55.30 |    4:36.52   |       89655      |     110406
       6  | 24:32.07 |    4:04.33   |      110407      |     128739
       7  | 28:36.40 |    5:38.16   |      128740      |     154105
       8  | 34:14.56 |    6:45.09   |      154106      |     184489
       9  | 40:59.65 |    3:06.52   |      184490      |     198491
      10  | 44:06.42 |    4:40.19   |      198492      |     219510
      11  | 48:46.61 |    3:38.13   |      219511      |     235873
      12  | 52:24.74 |    5:25.20   |      235874      |     260268
      13  | 57:50.19 |    4:18.23   |      260269      |     279641

Характеристики диапазона извлечения и сообщения об ошибках

Выбранный диапазон

     Имя файла F:\My Uploads 03.10.17\Dee Dee Bridgewater - Memphis...Yes, I'm Ready  2017  62'10''\Dee Dee Bridgewater - Memphis...Yes, I'm Ready.wav

     Пиковый уровень 100.0 %
     Скорость извлечения 3.4 X
     Качество диапазона 100.0 %
     CRC теста C7BB04E7
     CRC копии C7BB04E7
     Копирование... OK

Ошибок не произошло

Конец отчёта

---- CUETools DB Plugin V2.1.6

[CTDB TOCID: uoAzfWthG_wueqXGCNgW5tmSjwE-] found
Submit result: uoAzfWthG_wueqXGCNgW5tmSjwE- has been confirmed
Track | CTDB Status
  1   | (32/32) Accurately ripped
  2   | (32/32) Accurately ripped
  3   | (32/32) Accurately ripped
  4   | (32/32) Accurately ripped
  5   | (32/32) Accurately ripped
  6   | (32/32) Accurately ripped
  7   | (32/32) Accurately ripped
  8   | (31/32) Accurately ripped
  9   | (32/32) Accurately ripped
 10   | (32/32) Accurately ripped
 11   | (32/32) Accurately ripped
 12   | (29/32) Accurately ripped
 13   | (32/32) Accurately ripped

==== Контрольная сумма отчёта 50BAF953E28A16B04349E8A3D6BC996A66AD7D01BE30A32CEAB884EFE2872F4E ====
Содержание индексной карты (.CUE)
REM GENRE Jazz
REM DATE 2107
REM DISCID C70E900D
REM COMMENT "ExactAudioCopy v1.3"
PERFORMER "Dee Dee Bridgewater"
TITLE "Memphis...Yes, I'm Ready"
REM COMPOSER ""
FILE "Dee Dee Bridgewater - Memphis...Yes, I'm Ready.flac" WAVE
  TRACK 01 AUDIO
    TITLE "Yes, I'm Ready"
    PERFORMER "Dee Dee Bridgewater"
    REM COMPOSER ""
    INDEX 01 00:00:00
  TRACK 02 AUDIO
    TITLE "Giving Up"
    PERFORMER "Dee Dee Bridgewater"
    REM COMPOSER ""
    INDEX 01 04:57:35
  TRACK 03 AUDIO
    TITLE "I Can't Get Next To You"
    PERFORMER "Dee Dee Bridgewater"
    REM COMPOSER ""
    INDEX 01 09:52:46
  TRACK 04 AUDIO
    TITLE "Going Down Slow"
    PERFORMER "Dee Dee Bridgewater"
    REM COMPOSER ""
    INDEX 01 15:09:39
  TRACK 05 AUDIO
    TITLE "Why (Am I Treated So Bad)"
    PERFORMER "Dee Dee Bridgewater"
    REM COMPOSER ""
    INDEX 01 19:55:30
  TRACK 06 AUDIO
    TITLE "B.A.B.Y."
    PERFORMER "Dee Dee Bridgewater"
    REM COMPOSER ""
    INDEX 01 24:32:07
  TRACK 07 AUDIO
    TITLE "The Thrill Is Gone"
    PERFORMER "Dee Dee Bridgewater"
    REM COMPOSER ""
    INDEX 01 28:36:40
  TRACK 08 AUDIO
    TITLE "The Sweeter He Is"
    PERFORMER "Dee Dee Bridgewater"
    REM COMPOSER ""
    INDEX 01 34:14:56
  TRACK 09 AUDIO
    TITLE "I Can't Stand the Rain"
    PERFORMER "Dee Dee Bridgewater"
    REM COMPOSER ""
    INDEX 01 40:59:65
  TRACK 10 AUDIO
    TITLE "Don't Be Cruel"
    PERFORMER "Dee Dee Bridgewater"
    REM COMPOSER ""
    INDEX 01 44:06:42
  TRACK 11 AUDIO
    TITLE "Hound Dog"
    PERFORMER "Dee Dee Bridgewater"
    REM COMPOSER ""
    INDEX 01 48:46:61
  TRACK 12 AUDIO
    TITLE "Try a Little Tenderness"
    PERFORMER "Dee Dee Bridgewater"
    REM COMPOSER ""
    INDEX 01 52:24:74
  TRACK 13 AUDIO
    TITLE "(Take My Hand) Precious Lord"
    PERFORMER "Dee Dee Bridgewater"
    REM COMPOSER ""
    INDEX 01 57:50:19
Лог проверки качества
-----------------------

DON'T MODIFY THIS FILE

-----------------------

PERFORMER: auCDtect Task Manager, ver. 1.6.0 RC1 build 1.6.0.1
Copyright (c) 2008-2010 y-soft. All rights reserved
http://y-soft.org

ANALYZER: auCDtect: CD records authenticity detector, version 0.8.2
Copyright (c) 2004 Oleg Berngardt. All rights reserved.
Copyright (c) 2004 Alexander Djourik. All rights reserved.

FILE: Dee Dee Bridgewater - Memphis...Yes, I'm Ready.flac
  Size: 387125077 Hash: 08DE25EBB9760D3702FE40495568AB9D Accuracy: -m0
  Conclusion: CDDA 99%
  Signature: A672D1E715F329566E335D90B89DBBBEA7BA79B2
Приватный:
Нет (DHT включён)
Размер:
450.23 Мб (472,095,929 байт) » файлов: 11
Участники:
2 раздают, 1 качают (3 участников всего)
Внешние участники:
23 раздают, 7 качают (30 участников всего) [ Обновить ]
Скорость:
533.60 Кб/c 0/c
20:10
81
RSS
Нет комментариев. Ваш будет первым!