2013 Nils Petter Molvær & Moritz von Oswald – 1/1 {EmArcy 06025 3743670}

2013 Nils Petter Molvær & Moritz von Oswald – 1/1 {EmArcy 06025 3743670}
Страна-производитель диска (релиза):
Germany
Дата издания диска:
4 октября 2013
Номер по каталогу:
06025 3743670
Носитель:
CD
Битрейт аудио:
lossless
Аудиокодек:
FLAC (*.flac)
Тип рипа:
tracks+.cue
Время звучания:
1:07:42
Наличие сканов:
  • нет
Релизёр (источник):
DubbyHarry
Треклист:

01. Noise 1 [4:43]
02. Step By Step [7:49]
03. Transition [15:00]
04. Development [8:28]
05. Further [6:19]
06. Future [8:58]
07. Development (Ricardo Mix Dig) [7:25]
08. Noise 2 [8:59]

Recorded in Berlin 2013
Mastered at Eastside Mastering Studios, Berlin

Состав:
  • Written by – Moritz von Oswald, Nils Petter Molvær
  • Electronics – Moritz von Oswald
  • Trumpet – Nils Petter Molvær
  • Electronic Drums [Electronic Percussion] – Mala (track: 2), Max Loderbauer (track: 7), Ricardo Villalobos
  • Mixed By – Laurens von Oswald (tracks: 1 to 6, 8), Max Loderbauer (track: 7), Moritz von Oswald (track: 1 to 6, 8), Ricardo Villalobos (track: 7)
  • Engineer [Recording] – Laurens von Oswald
  • Mastered By – Götz Michael Rieth
  • Producer – Moritz von Oswald, Nils Petter Molvær
<spoiler title="Лог создания рипа"><pre>
Exact Audio Copy V1.0 beta 3 from 29. August 2011
EAC extraction logfile from 11. October 2013, 13:39
Nils Petter Molvaer & Moritz von Oswald / 1/1
Used drive : BENQ CDRW 5232X Adapter: 1 ID: 0
Read mode : Secure
Utilize accurate stream : Yes
Defeat audio cache : Yes
Make use of C2 pointers : No
Read offset correction : 738
Overread into Lead-In and Lead-Out : Yes
Fill up missing offset samples with silence : Yes
Delete leading and trailing silent blocks : No
Null samples used in CRC calculations : Yes
Used interface : Installed external ASPI interface
Gap handling : Appended to previous track
Used output format : User Defined Encoder
Selected bitrate : 1024 kBit/s
Quality : High
Add ID3 tag : No
Command line compressor : C:\Program Files (x86)\Flac\flac.exe
Additional command line options : -8 -V -T "ARTIST=%artist%" -T "TITLE=%title%" -T "ALBUM=%albumtitle%" -T "DATE=%year%" -T "TRACKNUMBER=%tracknr%" -T "GENRE=%genre%" -T "PERFORMER=%albuminterpret%" -T "COMPOSER=%composer%" %haslyrics%--tag-from-file=LYRICS="%lyricsfile%"%haslyrics% -T "ALBUMARTIST=%albumartist%" -T "DISCNUMBER=%cdnumber%" -T "TOTALDISCS=%totalcds%" -T "TOTALTRACKS=%numtracks%" -T "COMMENT=%comment%" %source% -o %dest%
TOC of the extracted CD Track | Start | Length | Start sector | End sector --------------------------------------------------------- 1 | 0:00.00 | 4:43.34 | 0 | 21258 2 | 4:43.34 | 7:48.41 | 21259 | 56399 3 | 12:32.00 | 15:00.27 | 56400 | 123926 4 | 27:32.27 | 8:28.01 | 123927 | 162027 5 | 36:00.28 | 6:19.24 | 162028 | 190476 6 | 42:19.52 | 8:58.37 | 190477 | 230863 7 | 51:18.14 | 7:25.14 | 230864 | 264252 8 | 58:43.28 | 8:59.36 | 264253 | 304713
Track 1 Filename E:\MP3\EAC\Nils Petter Molvaer & Moritz von Oswald - 1-1 (FLAC)\01 Noise 1.wav Pre-gap length 0:00:02.00 Peak level 98.2 % Extraction speed 5.2 X Track quality 100.0 % Test CRC 633E2B6A Copy CRC 633E2B6A Track not present in AccurateRip database Copy OK
Track 2 Filename E:\MP3\EAC\Nils Petter Molvaer & Moritz von Oswald - 1-1 (FLAC)\02 Step By Step.wav Peak level 96.5 % Extraction speed 6.0 X Track quality 100.0 % Test CRC C16E2807 Copy CRC C16E2807 Track not present in AccurateRip database Copy OK
Track 3 Filename E:\MP3\EAC\Nils Petter Molvaer & Moritz von Oswald - 1-1 (FLAC)\03 Transition.wav Peak level 99.9 % Extraction speed 5.9 X Track quality 99.9 % Test CRC 87242325 Copy CRC 87242325 Track not present in AccurateRip database Copy OK
Track 4 Filename E:\MP3\EAC\Nils Petter Molvaer & Moritz von Oswald - 1-1 (FLAC)\04 Development.wav Peak level 98.8 % Extraction speed 5.9 X Track quality 100.0 % Test CRC 60344EBB Copy CRC 60344EBB Track not present in AccurateRip database Copy OK
Track 5 Filename E:\MP3\EAC\Nils Petter Molvaer & Moritz von Oswald - 1-1 (FLAC)\05 Further.wav Peak level 99.9 % Extraction speed 5.7 X Track quality 100.0 % Test CRC 0BEEBF7D Copy CRC 0BEEBF7D Track not present in AccurateRip database Copy OK
Track 6 Filename E:\MP3\EAC\Nils Petter Molvaer & Moritz von Oswald - 1-1 (FLAC)\06 Future.wav Peak level 98.8 % Extraction speed 5.5 X Track quality 99.9 % Test CRC ACB675E3 Copy CRC ACB675E3 Track not present in AccurateRip database Copy OK
Track 7 Filename E:\MP3\EAC\Nils Petter Molvaer & Moritz von Oswald - 1-1 (FLAC)\07 Development (Ricardo Mix Dig).wav Peak level 98.8 % Extraction speed 5.4 X Track quality 99.9 % Test CRC F33CAABB Copy CRC F33CAABB Track not present in AccurateRip database Copy OK
Track 8 Filename E:\MP3\EAC\Nils Petter Molvaer & Moritz von Oswald - 1-1 (FLAC)\08 Noise 2.wav Peak level 98.7 % Extraction speed 5.8 X Track quality 99.9 % Test CRC 02044F55 Copy CRC 02044F55 Track not present in AccurateRip database Copy OK
None of the tracks are present in the AccurateRip database
No errors occurred
End of status report
---- CUETools DB Plugin V2.1.3
[CTDB TOCID: LB03IvFcvgnxi34V4d5kWJALD.Y-] found, Submit result: LB03IvFcvgnxi34V4d5kWJALD.Y- has been confirmed
[08475f1e] (2/2) Accurately ripped
==== Log checksum 4AB9AF0AF5B6FE7143C29804E25283B61B938FBBAFEC65E048FE8EBAB2DCA967 ====
<spoiler title="Содержание индексной карты (.CUE)"><pre>
REM GENRE Jazz
REM DATE 2013
REM DISCID 620FDE08
REM COMMENT "ExactAudioCopy v1.0b3"
CATALOG 0602537436705
PERFORMER "Nils Petter Molvaer & Moritz von Oswald"
TITLE "1/1"
FILE "01 - Noise 1.wav" WAVE TRACK 01 AUDIO TITLE "Noise 1" PERFORMER "Nils Petter Molvaer & Moritz von Oswald" ISRC DEUM71302596 INDEX 01 00:00:00
FILE "02 - Step By Step.wav" WAVE TRACK 02 AUDIO TITLE "Step By Step" PERFORMER "Nils Petter Molvaer & Moritz von Oswald" ISRC DEUM71302597 INDEX 01 00:00:00
FILE "03 - Transition.wav" WAVE TRACK 03 AUDIO TITLE "Transition" PERFORMER "Nils Petter Molvaer & Moritz von Oswald" ISRC DEUM71302598 INDEX 01 00:00:00
FILE "04 - Development.wav" WAVE TRACK 04 AUDIO TITLE "Development" PERFORMER "Nils Petter Molvaer & Moritz von Oswald" ISRC DEUM71302599 INDEX 01 00:00:00
FILE "05 - Further.wav" WAVE TRACK 05 AUDIO TITLE "Further" PERFORMER "Nils Petter Molvaer & Moritz von Oswald" ISRC DEUM71302600 INDEX 01 00:00:00
FILE "06 - Future.wav" WAVE TRACK 06 AUDIO TITLE "Future" PERFORMER "Nils Petter Molvaer & Moritz von Oswald" ISRC DEUM71302601 INDEX 01 00:00:00
FILE "07 - Development (Ricardo Mix Dig).wav" WAVE TRACK 07 AUDIO TITLE "Development (Ricardo Mix Dig)" PERFORMER "Nils Petter Molvaer & Moritz von Oswald" ISRC DEUM71302602 INDEX 01 00:00:00
FILE "08 - Noise 2.wav" WAVE TRACK 08 AUDIO TITLE "Noise 2" PERFORMER "Nils Petter Molvaer & Moritz von Oswald" ISRC DEUM71302603 INDEX 01 00:00:00
Nils Petter Molvær &amp; Moritz von Oswald

The album was recorded earlier this year in von Oswald's Berlin studio, and across eight tracks the German artist's synth manipulations are paired with Molvaer's trumpet. Von Oswald's love of jazz is well-documented—it's been an underlying influence on much of his work over the past two decades, and his most recent LP, a collaborative album with Juan Atkins called Borderland, combined elements of jazz, dub and techno.
Приватный Нет (DHT включён)
Хэш 9F490E01966056AA65AC4C7ADFABEBA055F373FF
Размер 317.22 Мб (332,626,421 байт) » файлов: 12 [ Список файлов ]
Участники 0 раздают, 0 качают (0 участников всего)
Внешние участники 10 раздают, 3 качают (13 участников всего)
Скорость Сейчас никто не качает
10:00
45
RSS
Нет комментариев. Ваш будет первым!