Поиск

2007 Billy Ward Trio - Out The Door {DrumPike 986287}

2007 Billy Ward Trio - Out The Door {DrumPike 986287}
Стили:
Страна-производитель диска (релиза):
USA
Дата издания диска:
2007
Издатель (лейбл):
Номер по каталогу:
986287
Носитель:
CD
Битрейт аудио:
lossless
Аудиокодек:
FLAC (*.flac)
Тип рипа:
tracks
Время звучания:
49:20
Наличие сканов:
  • web
Релизёр (источник):
samth3mancgp
Треклист:

01. Bordertown 04:38
02. Out the Door 05:30
03. Riding Nomad 04:35
04. Shanti 03:26
05. Song for Jo 03:49
06. String Theory 1.01 02:21
07. String Theory 05:46
08. Best Buddies 04:24
09. Three On the Tree 04:07
10. Comfort Me 06:32
11. Beddy Bye Time 04:08

Состав:
  • Barry Coates    Composer, Guitar (Synthesizer)
  • Bill Urmson    5-string Bass, Bass
  • Billy Ward    Drums, Engineer, Liner Notes, Mixing, Producer
Лог создания рипа
Exact Audio Copy V1.3 from 2. September 2016

EAC extraction logfile from 20. November 2017, 22:59

Billy Ward Trio / Out The Door

Used drive  : HL-DT-STDVD+-RW GA31N   Adapter: 1  ID: 0

Read mode               : Secure
Utilize accurate stream : Yes
Defeat audio cache      : Yes
Make use of C2 pointers : No

Read offset correction                      : 103
Overread into Lead-In and Lead-Out          : No
Fill up missing offset samples with silence : Yes
Delete leading and trailing silent blocks   : No
Null samples used in CRC calculations       : Yes
Used interface                              : Native Win32 interface for Win NT & 2000
Gap handling                                : Appended to previous track

Used output format              : User Defined Encoder
Selected bitrate                : 1024 kBit/s
Quality                         : High
Add ID3 tag                     : No
Command line compressor         : C:\Program Files (x86)\Exact Audio Copy\flac-1.3.2-win\win32\flac.exe
Additional command line options : -8 -V -T "artist=%artist%" -T "title=%title%" -T "album=%albumtitle%" -T "date=%year%" -T "tracknumber=%tracknr%" -T "genre=%genre%" %source% 


TOC of the extracted CD

     Track |   Start  |  Length  | Start sector | End sector 
    ---------------------------------------------------------
        1  |  0:00.00 |  4:38.57 |         0    |    20906   
        2  |  4:38.57 |  5:30.20 |     20907    |    45676   
        3  | 10:09.02 |  4:35.12 |     45677    |    66313   
        4  | 14:44.14 |  3:26.37 |     66314    |    81800   
        5  | 18:10.51 |  3:49.28 |     81801    |    99003   
        6  | 22:00.04 |  2:21.02 |     99004    |   109580   
        7  | 24:21.06 |  5:46.35 |    109581    |   135565   
        8  | 30:07.41 |  4:24.53 |    135566    |   155418   
        9  | 34:32.19 |  4:07.04 |    155419    |   173947   
       10  | 38:39.23 |  6:32.18 |    173948    |   203365   
       11  | 45:11.41 |  4:08.10 |    203366    |   221975   


Track  1

     Filename K:\BT\Billy Ward Trio - Out The Door (2007) [FLAC] (CD EAC Rip)\01 Bordertown.wav

     Pre-gap length  0:00:02.00

     Peak level 99.9 %
     Extraction speed 1.3 X
     Track quality 100.0 %
     Test CRC 035AC7E6
     Copy CRC 035AC7E6
     Cannot be verified as accurate (confidence 3)  [C8AE0218], AccurateRip returned [7F1058F1]  (AR v2)
     Copy OK

Track  2

     Filename K:\BT\Billy Ward Trio - Out The Door (2007) [FLAC] (CD EAC Rip)\02 Out the Door.wav

     Peak level 100.0 %
     Extraction speed 1.4 X
     Track quality 100.0 %
     Test CRC EF391E0C
     Copy CRC EF391E0C
     Cannot be verified as accurate (confidence 3)  [FA86D5EF], AccurateRip returned [6BA42D04]  (AR v2)
     Copy OK

Track  3

     Filename K:\BT\Billy Ward Trio - Out The Door (2007) [FLAC] (CD EAC Rip)\03 Riding Nomad.wav

     Pre-gap length  0:00:03.45

     Peak level 100.0 %
     Extraction speed 1.6 X
     Track quality 100.0 %
     Test CRC 47E87D98
     Copy CRC 47E87D98
     Cannot be verified as accurate (confidence 3)  [644B5D0D], AccurateRip returned [7606E481]  (AR v2)
     Copy OK

Track  4

     Filename K:\BT\Billy Ward Trio - Out The Door (2007) [FLAC] (CD EAC Rip)\04 Shanti.wav

     Pre-gap length  0:00:02.00

     Peak level 93.5 %
     Extraction speed 1.4 X
     Track quality 99.9 %
     Test CRC 634C04E4
     Copy CRC 634C04E4
     Cannot be verified as accurate (confidence 3)  [BDF9F948], AccurateRip returned [12B55A9C]  (AR v2)
     Copy OK

Track  5

     Filename K:\BT\Billy Ward Trio - Out The Door (2007) [FLAC] (CD EAC Rip)\05 Song for Jo.wav

     Pre-gap length  0:00:02.00

     Peak level 100.0 %
     Extraction speed 1.5 X
     Track quality 99.9 %
     Test CRC 5F9852F6
     Copy CRC 5F9852F6
     Cannot be verified as accurate (confidence 3)  [DF0D7F9D], AccurateRip returned [54182C57]  (AR v2)
     Copy OK

Track  6

     Filename K:\BT\Billy Ward Trio - Out The Door (2007) [FLAC] (CD EAC Rip)\06 String Theory 1.01.wav

     Pre-gap length  0:00:03.28

     Peak level 100.0 %
     Extraction speed 1.6 X
     Track quality 100.0 %
     Test CRC 82589296
     Copy CRC 82589296
     Cannot be verified as accurate (confidence 3)  [78A439F0], AccurateRip returned [4E7DAEC8]  (AR v2)
     Copy OK

Track  7

     Filename K:\BT\Billy Ward Trio - Out The Door (2007) [FLAC] (CD EAC Rip)\07 String Theory.wav

     Peak level 100.0 %
     Extraction speed 2.0 X
     Track quality 100.0 %
     Test CRC 635EE2DD
     Copy CRC 635EE2DD
     Cannot be verified as accurate (confidence 3)  [235BB7F6], AccurateRip returned [BBA22960]  (AR v2)
     Copy OK

Track  8

     Filename K:\BT\Billy Ward Trio - Out The Door (2007) [FLAC] (CD EAC Rip)\08 Best Buddies.wav

     Pre-gap length  0:00:02.00

     Peak level 100.0 %
     Extraction speed 2.1 X
     Track quality 100.0 %
     Test CRC 8EDDD837
     Copy CRC 8EDDD837
     Cannot be verified as accurate (confidence 3)  [F83C8938], AccurateRip returned [E283A75D]  (AR v2)
     Copy OK

Track  9

     Filename K:\BT\Billy Ward Trio - Out The Door (2007) [FLAC] (CD EAC Rip)\09 Three on the Tree.wav

     Pre-gap length  0:00:02.00

     Peak level 99.9 %
     Extraction speed 2.1 X
     Track quality 100.0 %
     Test CRC 29F3B51C
     Copy CRC 29F3B51C
     Cannot be verified as accurate (confidence 3)  [16BEEFCA], AccurateRip returned [54D6683C]  (AR v2)
     Copy OK

Track 10

     Filename K:\BT\Billy Ward Trio - Out The Door (2007) [FLAC] (CD EAC Rip)\10 Comfort Me.wav

     Pre-gap length  0:00:02.00

     Peak level 99.9 %
     Extraction speed 2.4 X
     Track quality 100.0 %
     Test CRC 0C17977E
     Copy CRC 0C17977E
     Cannot be verified as accurate (confidence 3)  [4DC59AE0], AccurateRip returned [411FE25E]  (AR v2)
     Copy OK

Track 11

     Filename K:\BT\Billy Ward Trio - Out The Door (2007) [FLAC] (CD EAC Rip)\11 Beddy Bye Time.wav

     Pre-gap length  0:00:01.61

     Peak level 100.0 %
     Extraction speed 2.3 X
     Track quality 100.0 %
     Test CRC 56E2A11F
     Copy CRC 56E2A11F
     Cannot be verified as accurate (confidence 3)  [5FBD4012], AccurateRip returned [DA9BD59B]  (AR v2)
     Copy OK


No tracks could be verified as accurate
You may have a different pressing from the one(s) in the database

No errors occurred

End of status report

---- CUETools DB Plugin V2.1.6

[CTDB TOCID: 2ni5n.3k.LxkTv.5lQL694E.7no-] found
Submit result: 2ni5n.3k.LxkTv.5lQL694E.7no- has been confirmed
Track | CTDB Status
  1   | (1/1) Accurately ripped
  2   | (1/1) Accurately ripped
  3   | (1/1) Accurately ripped
  4   | (1/1) Accurately ripped
  5   | (1/1) Accurately ripped
  6   | (1/1) Accurately ripped
  7   | (1/1) Accurately ripped
  8   | (1/1) Accurately ripped
  9   | (1/1) Accurately ripped
 10   | (1/1) Accurately ripped
 11   | (1/1) Accurately ripped


==== Log checksum 5640D672B1E0FCF6CC55292253322749CD83C4E54E082D2F858A0E48C9D71E8C ====
Содержание индексной карты (.CUE)
REM GENRE Jazz
REM DATE 2007
REM DISCID 800B8F0B
REM COMMENT "ExactAudioCopy v1.3"
PERFORMER "Billy Ward Trio"
TITLE "Out The Door"
REM COMPOSER ""
FILE "01 Bordertown.wav" WAVE
  TRACK 01 AUDIO
    TITLE "Bordertown"
    PERFORMER "Billy Ward Trio"
    REM COMPOSER ""
    INDEX 01 00:00:00
FILE "02 Out the Door.wav" WAVE
  TRACK 02 AUDIO
    TITLE "Out the Door"
    PERFORMER "Billy Ward Trio"
    REM COMPOSER ""
    INDEX 01 00:00:00
  TRACK 03 AUDIO
    TITLE "Riding Nomad"
    PERFORMER "Billy Ward Trio"
    REM COMPOSER ""
    INDEX 00 05:26:50
FILE "03 Riding Nomad.wav" WAVE
    INDEX 01 00:00:00
  TRACK 04 AUDIO
    TITLE "Shanti"
    PERFORMER "Billy Ward Trio"
    REM COMPOSER ""
    INDEX 00 04:33:12
FILE "04 Shanti.wav" WAVE
    INDEX 01 00:00:00
  TRACK 05 AUDIO
    TITLE "Song for Jo"
    PERFORMER "Billy Ward Trio"
    REM COMPOSER ""
    INDEX 00 03:24:37
FILE "05 Song for Jo.wav" WAVE
    INDEX 01 00:00:00
  TRACK 06 AUDIO
    TITLE "String Theory 1.01"
    PERFORMER "Billy Ward Trio"
    REM COMPOSER ""
    INDEX 00 03:46:00
FILE "06 String Theory 1.01.wav" WAVE
    INDEX 01 00:00:00
FILE "07 String Theory.wav" WAVE
  TRACK 07 AUDIO
    TITLE "String Theory"
    PERFORMER "Billy Ward Trio"
    REM COMPOSER ""
    INDEX 01 00:00:00
  TRACK 08 AUDIO
    TITLE "Best Buddies"
    PERFORMER "Billy Ward Trio"
    REM COMPOSER ""
    INDEX 00 05:44:35
FILE "08 Best Buddies.wav" WAVE
    INDEX 01 00:00:00
  TRACK 09 AUDIO
    TITLE "Three on the Tree"
    PERFORMER "Billy Ward Trio"
    REM COMPOSER ""
    INDEX 00 04:22:53
FILE "09 Three on the Tree.wav" WAVE
    INDEX 01 00:00:00
  TRACK 10 AUDIO
    TITLE "Comfort Me"
    PERFORMER "Billy Ward Trio"
    REM COMPOSER ""
    INDEX 00 04:05:04
FILE "10 Comfort Me.wav" WAVE
    INDEX 01 00:00:00
  TRACK 11 AUDIO
    TITLE "Beddy Bye Time"
    PERFORMER "Billy Ward Trio"
    REM COMPOSER ""
    INDEX 00 06:30:32
FILE "11 Beddy Bye Time.wav" WAVE
    INDEX 01 00:00:00
Лог проверки качества
[CUETools log; Date: 15.12.2017 11:16:32; Version: 2.1.5]
[CTDB TOCID: 2ni5n.3k.LxkTv.5lQL694E.7no-] found.
        [ CTDBID ] Status
        [11079ebb] (2/2) Accurately ripped
Track | CTDB Status
  1   | (2/2) Accurately ripped
  2   | (2/2) Accurately ripped
  3   | (2/2) Accurately ripped
  4   | (2/2) Accurately ripped
  5   | (2/2) Accurately ripped
  6   | (2/2) Accurately ripped
  7   | (2/2) Accurately ripped
  8   | (2/2) Accurately ripped
  9   | (2/2) Accurately ripped
 10   | (2/2) Accurately ripped
 11   | (2/2) Accurately ripped
[AccurateRip ID: 00140b17-00acfff3-800b8f0b] found.
Track   [  CRC   |   V2   ] Status
 01     [9a4f525c|c8ae0218] (0+0/3) No match
 02     [89fd2a32|fa86d5ef] (0+0/3) No match
 03     [fce52001|644b5d0d] (0+0/3) No match
 04     [f1a3c2ac|bdf9f948] (0+0/3) No match
 05     [6a70f5c7|df0d7f9d] (0+0/3) No match
 06     [47d8d446|78a439f0] (0+0/3) No match
 07     [2822f4be|235bb7f6] (0+0/3) No match
 08     [4df5ebed|f83c8938] (0+0/3) No match
 09     [b819930c|16beefca] (0+0/3) No match
 10     [55507afe|4dc59ae0] (0+0/3) No match
 11     [9e06714f|5fbd4012] (0+0/3) No match
Offsetted by 80:
 01     [7f1058f1] (3/3) Accurately ripped
 02     [6ba42d04] (3/3) Accurately ripped
 03     [7606e481] (3/3) Accurately ripped
 04     [12b55a9c] (3/3) Accurately ripped
 05     [54182c57] (3/3) Accurately ripped
 06     [4e7daec8] (3/3) Accurately ripped
 07     [bba22960] (3/3) Accurately ripped
 08     [e283a75d] (3/3) Accurately ripped
 09     [54d6683c] (3/3) Accurately ripped
 10     [411fe25e] (3/3) Accurately ripped
 11     [da9bd59b] (3/3) Accurately ripped

Track Peak [ CRC32  ] [W/O NULL] [  LOG   ]
 --   99,9 [1BE77FD5] [AB258103]           
 01   99,9 [035AC7E6] [B01C8913]   CRC32   
 02   99,9 [EF391E0C] [DD86C917]   CRC32   
 03   99,9 [47E87D98] [A945F84E]   CRC32   
 04   93,5 [634C04E4] [FC1B0501]   CRC32   
 05   99,9 [5F9852F6] [41F4A413]   CRC32   
 06   99,9 [82589296] [5FA88815]   CRC32   
 07   99,9 [635EE2DD] [1EBE284C]   CRC32   
 08   99,9 [8EDDD837] [E687B88C]   CRC32   
 09   99,9 [29F3B51C] [344EC5D6]   CRC32   
 10   99,9 [0C17977E] [8A1E799E]   CRC32   
 11   99,9 [56E2A11F] [03DDDDF7]   CRC32
01:35
42
RSS
Нет комментариев. Ваш будет первым!