Поиск

2003 Sophia Domancich - Pentacle {Sketch SKE 333032}

2003 Sophia Domancich - Pentacle {Sketch SKE 333032}
Дата записи диска:
9-10 декабря 2002
Дата издания диска:
2003
Номер по каталогу:
SKE 333032
Носитель:
CD
Битрейт аудио:
lossless
Аудиокодек:
FLAC (*.flac)
Тип рипа:
tracks
Время звучания:
51:18
Наличие сканов:
  • да
Релизёр (источник):
b00st
Треклист:

01. Vestiges/Pentecôte (Suite) 7:45
02. Don't Even Think About It 12:06
03. Pentecôte 11:02
04. Polygone de Sustentation 4:06
05. Étoile Rouge 2:37
06. Belchose 4:54
07. 65ter 5:02
08. Raoul 3:07
09. Final 0:39

Состав:
  • Jean-Luc Cappozzo Bugle, Trumpet
  • Alain Costagliola Piano
  • Sophia Domancich Composer, Piano
  • Philippe Ghielmetti Graphic Design, Producer
  • Simon Goubert Cymbals, Drums
  • Michel Marre Composer, Euphonium
  • Claude Tchamitchian Contrabass
EAC extraction logfile from 24. November 2005, 15:55 for CD
Sophia Domancich / pentacle

Used drive : HL-DT-STDVD-ROM GDR8162B Adapter: 1 ID: 1
Read mode : Secure with NO C2, accurate stream, disable cache
Read offset correction : 102
Overread into Lead-In and Lead-Out : Yes

Used output format : Internal WAV Routines
44.100 Hz; 16 Bit; Stereo

Other options :
Fill up missing offset samples with silence : Yes
Delete leading and trailing silent blocks : No
Installed external ASPI interface

Track 1
Filename D:\Download en cours\01 - Vestiges pentecote (suite).wav

Pre-gap length 0:00:02.00

Peak level 99.0 %
Track quality 100.0 %
Test CRC 4A935C59
Copy CRC 4A935C59
Copy OK

Track 2
Filename D:\Download en cours\02 - Don't even think about it.wav

Peak level 99.9 %
Track quality 100.0 %
Test CRC 5C3F275D
Copy CRC 5C3F275D
Copy OK

Track 3
Filename D:\Download en cours\03 - Pentecote.wav

Peak level 100.0 %
Track quality 100.0 %
Test CRC AA5427AE
Copy CRC AA5427AE
Copy OK

Track 4
Filename D:\Download en cours\04 - Polygone de sustentation.wav

Peak level 99.7 %
Track quality 99.9 %
Test CRC 2EAE657B
Copy CRC 2EAE657B
Copy OK

Track 5
Filename D:\Download en cours\05 - Etoile rouge.wav

Peak level 99.6 %
Track quality 100.0 %
Test CRC DDA7851A
Copy CRC DDA7851A
Copy OK

Track 6
Filename D:\Download en cours\06 - Belchose.wav

Peak level 98.9 %
Track quality 99.9 %
Test CRC 50BE510D
Copy CRC 50BE510D
Copy OK

Track 7
Filename D:\Download en cours\07 - 65 ter.wav

Peak level 100.0 %
Track quality 99.9 %
Test CRC A41DCB3F
Copy CRC A41DCB3F
Copy OK

Track 8
Filename D:\Download en cours\08 - Raoul.wav

Peak level 99.9 %
Track quality 100.0 %
Test CRC C6A03EF2
Copy CRC C6A03EF2
Copy OK

Track 9
Filename D:\Download en cours\09 - Final.wav

Peak level 99.9 %
Track quality 100.0 %
Test CRC 57E752A6
Copy CRC 57E752A6
Copy OK

No errors occured

End of status report
01:07
25
RSS
Нет комментариев. Ваш будет первым!