Поиск

2000 Greg Osby - The Invisible Hand {Blue Note 7243 5 20134 2 5}

2000 Greg Osby - The Invisible Hand {Blue Note 7243 5 20134 2 5}
Страна-производитель диска (релиза):
USA
Дата записи диска:
8-9 сентября 1999
Дата издания диска:
29 февраля 2000
Издатель (лейбл):
Номер по каталогу:
7243 5 20134 2 5
Носитель:
CD
Битрейт аудио:
lossless
Аудиокодек:
FLAC (*.flac)
Тип рипа:
image+.cue
Время звучания:
01:05:18
Наличие сканов:
  • да
Релизёр (источник):
Bahobaho
Треклист:

01. Ashes 08:02
02. Who Needs Forever 05:09
03. The Watcher 05:40
04. Jitterbug Waltz 07:40
05. Sanctus 07:39
06. Indiana 04:32
07. Nature Boy 08:43
08. Tough Love 06:00
09. With Son 07:29
10. The Watcher 2 04:22

Systems Two Studios, Brooklyn, NY

Состав:
  • Terri Lyne Carrington Drums (Snare)
  • Scott Colley Bass
  • Jim Hall Composer, Guitar
  • Andrew Hill Composer, Piano
  • Joseph Marciano Engineer
  • Greg Osby Clarinet, Composer, Producer, Sax (Alto)
  • Gary Thomas Flute, Flute (Alto), Sax (Tenor)
Лог создания рипа
<spoiler title="Лог создания рипа"><pre>Exact Audio Copy V0.99 prebeta 5 from 4. May 2009
Отчёт EAC об извлечении, выполненном 6. октября 2009, 18:01
Greg Osby / The Invisible Hand
Дисковод: Optiarc DVD RW AD-7191S Adapter: 1 ID: 0
Режим чтения : Достоверность
Использование точного потока : Да
Отключение кэша аудио : Да
Использование указателей C2 : Нет
Коррекция смещения при чтении : 6
Способность читать области Lead-in и Lead-out : Нет
Заполнение пропущенных сэмплов тишиной : Да
Удаление блоков с тишиной в начале и конце : Нет
При вычислениях CRC использовались нулевые сэмплы : Да
Интерфейс : Встроенный Win32-интерфейс для Win NT/2000
Выходной формат : Внутренние WAV-операции
Формат сэмплов : 44.100 Гц; 16 бит; стерео
TOC извлечённого CD
Трек | Старт | Длительность | Начальный сектор | Конечный сектор
---------------------------------------------------------------------
1 | 0:00.00 | 8:02.05 | 0 | 36154
2 | 8:02.05 | 5:09.70 | 36155 | 59399
3 | 13:12.00 | 5:40.05 | 59400 | 84904
4 | 18:52.05 | 7:40.00 | 84905 | 119404
5 | 26:32.05 | 7:39.00 | 119405 | 153829
6 | 34:11.05 | 4:32.00 | 153830 | 174229
7 | 38:43.05 | 8:43.72 | 174230 | 213526
8 | 47:27.02 | 6:00.38 | 213527 | 240564
9 | 53:27.40 | 7:29.37 | 240565 | 274276
10 | 60:57.02 | 4:22.25 | 274277 | 293951
Характеристики диапазона извлечения и сообщения об ошибках
Выбранный диапазон
Имя файла H:\Greg Osby - 2000 - The Invisible Hand\Greg Osby - The Invisible Hand.wav
Пиковый уровень 99.9 %
Качество диапазона 99.9 %
CRC копии C5BBA23D
Копирование... OK
Ошибок не произошло
AccurateRip: сводка
Трек 1 точное извлечение (доверие 2) [559E8973]
Трек 2 точное извлечение (доверие 2) [6C5F7FCB]
Трек 3 точное извлечение (доверие 2) [505E9719]
Трек 4 точное извлечение (доверие 2) [9045BC46]
Трек 5 точное извлечение (доверие 2) [13DA06F9]
Трек 6 точное извлечение (доверие 2) [502B8D62]
Трек 7 точное извлечение (доверие 2) [09735B25]
Трек 8 точное извлечение (доверие 2) [995DDE07]
Трек 9 точное извлечение (доверие 2) [19331960]
Трек 10 точное извлечение (доверие 2) [EA0C45BB]
Все треки извлечены точно
Конец отчёта</pre></spoiler>
Приватный:
Нет (DHT включён)
Размер:
384.52 Мб (403,197,548 байт) » файлов: 14
Участники:
0 раздают, 0 качают (0 участников всего)
Внешние участники:
3 раздают, 1 качают (4 участников всего) [ Обновить ]
Скорость:
Торрент не зарегистрирован на трекере
13:09
66
RSS
Нет комментариев. Ваш будет первым!