Поиск

1992 Maceo Parker - Life On Planet Groove {Verve 314 517 197-2}

1992 Maceo Parker - Life On Planet Groove {Verve 314 517 197-2}
Стили:
Страна-производитель диска (релиза):
USA
Дата записи диска:
5-7 марта 1992
Дата издания диска:
1992
Издатель (лейбл):
Номер по каталогу:
314 517 197-2
Носитель:
CD
Битрейт аудио:
lossless
Аудиокодек:
FLAC (*.flac)
Тип рипа:
tracks+.cue
Время звучания:
01:14:10
Наличие сканов:
  • да
Релизёр (источник):
cktbreaker

Треклист:

1. Shake Everything You've Got [16:15]
2. Pass The Peas [11:12]
3. I Got You (I Feel Good) [3:38]
4. Got To Get U [6:56]
5. Addictive Love [8:37]
6. Children's World [6:07]
7. Georgia On My Mind [7:12]
8. Soul Power 92 [14:13]

Состав:
  • Kenwood Dennard Drums
  • Candy Dulfer Sax (Alto)
  • Pee Wee Ellis Flute, Sax (Tenor), Vocals
  • Larry Goldings Organ, Organ (Hammond)
  • Vincent Henry Bass, Guitar (Bass), Sax (Alto)
  • Rodney Jones Guitar
  • Kym Mazelle Vocals
  • Stephan Meyner Producer
  • Maceo Parker Composer, Producer, Sax (Alto), Vocals
  • Gerhard Veeck Engineer
  • Fred Wesley Trombone, Vocals
  • Cliff White Liner Notes

Записано в 

  • Stadtgarten Restaurant, Cologne, Germany
Лог создания рипа
Exact Audio Copy V0.99 prebeta 3 from 28. July 2007
EAC extraction logfile from 1. December 2007, 23:44
Maceo Parker / Life On Planet Groove
Used drive : TSSTcorpCD/DVDW TS-H652M Adapter: 1 ID: 0
Read mode : Secure
Utilize accurate stream : Yes
Defeat audio cache : Yes
Make use of C2 pointers : No
Read offset correction : 6
Overread into Lead-In and Lead-Out : No
Fill up missing offset samples with silence : Yes
Delete leading and trailing silent blocks : No
Null samples used in CRC calculations : Yes
Used interface : Installed external ASPI interface
Gap handling : Appended to previous track
Used output format : User Defined Encoder
Selected bitrate : 192 kBit/s
Quality : High
Add ID3 tag : No
Command line compressor : C:\Program Files\FLAC\flac.exe
Additional command line options : -8 -A tukey(0.25) -A gauss(0.1875) -b 4096 -V -T "artist=%a" -T "title=%t" -T "album=%g" -T "date=%y" -T "tracknumber=%n" -T "genre=%m" %s --sector-align
TOC of the extracted CD Track | Start | Length | Start sector | End sector --------------------------------------------------------- 1 | 0:00.50 | 16:39.00 | 50 | 74974 2 | 16:39.50 | 11:26.70 | 74975 | 126494 3 | 28:06.45 | 3:45.67 | 126495 | 143436 4 | 31:52.37 | 7:08.45 | 143437 | 175581 5 | 39:01.07 | 8:58.63 | 175582 | 215994 6 | 47:59.70 | 6:21.65 | 215995 | 244634 7 | 54:21.60 | 7:23.35 | 244635 | 277894 8 | 61:45.20 | 14:12.70 | 277895 | 341864
Track 1 Filename K:\Maceo Parker - Life On Planet Groove [1992][FLAC]\01 - Maceo Parker - Shake Everything You've Got.wav Pre-gap length 0:00:02.66 Peak level 100.0 % Track quality 100.0 % Test CRC 12C4FC12 Copy CRC 12C4FC12 Cannot be verified as accurate (confidence 2) [EB146EFC], AccurateRip returned [05FAEB53] Copy OK
Track 2 Filename K:\Maceo Parker - Life On Planet Groove [1992][FLAC]\02 - Maceo Parker - Pass The Peas.wav Peak level 100.0 % Track quality 100.0 % Test CRC C8A9D651 Copy CRC C8A9D651 Cannot be verified as accurate (confidence 2) [FA62C7D9], AccurateRip returned [13043475] Copy OK
Track 3 Filename K:\Maceo Parker - Life On Planet Groove [1992][FLAC]\03 - Maceo Parker - I Got You (I Feel Good).wav Pre-gap length 0:00:13.30 Peak level 100.0 % Track quality 100.0 % Test CRC ACDB37E4 Copy CRC ACDB37E4 Cannot be verified as accurate (confidence 2) [07B4A0EC], AccurateRip returned [65924309] Copy OK
Track 4 Filename K:\Maceo Parker - Life On Planet Groove [1992][FLAC]\04 - Maceo Parker - Got To Get U.wav Pre-gap length 0:00:07.82 Peak level 100.0 % Track quality 100.0 % Test CRC F4EE8141 Copy CRC F4EE8141 Cannot be verified as accurate (confidence 2) [FCBC0CBE], AccurateRip returned [872A19DE] Copy OK
Track 5 Filename K:\Maceo Parker - Life On Planet Groove [1992][FLAC]\05 - Maceo Parker - Addictive Love.wav Pre-gap length 0:00:12.93 Peak level 97.3 % Track quality 100.0 % Test CRC EA3C5C5B Copy CRC EA3C5C5B Cannot be verified as accurate (confidence 2) [A64AC0F4], AccurateRip returned [9D205F62] Copy OK
Track 6 Filename K:\Maceo Parker - Life On Planet Groove [1992][FLAC]\06 - Maceo Parker - Children's World.wav Pre-gap length 0:00:22.13 Peak level 97.1 % Track quality 99.9 % Test CRC 01ADBE91 Copy CRC 01ADBE91 Cannot be verified as accurate (confidence 2) [C36FC36D], AccurateRip returned [CDEDF7C8] Copy OK
Track 7 Filename K:\Maceo Parker - Life On Planet Groove [1992][FLAC]\07 - Maceo Parker - Georgia On My Mind.wav Pre-gap length 0:00:14.46 Peak level 98.6 % Track quality 100.0 % Test CRC 54ADBA26 Copy CRC 54ADBA26 Cannot be verified as accurate (confidence 2) [8487AA49], AccurateRip returned [666917A5] Copy OK
Track 8 Filename K:\Maceo Parker - Life On Planet Groove [1992][FLAC]\08 - Maceo Parker - Soul Power '92.wav Pre-gap length 0:00:11.46 Peak level 100.0 % Track quality 100.0 % Test CRC C9142690 Copy CRC C9142690 Cannot be verified as accurate (confidence 2) [1E98E1F7], AccurateRip returned [78A10CB3] Copy OK
No tracks could be verified as accurate
You may have a different pressing from the one(s) in the database
No errors occurred
End of status report
Содержание индексной карты (.CUE)
REM GENRE Funk
REM DATE 1992
REM DISCID 6811CE08
REM COMMENT "ExactAudioCopy v0.99pb3"
PERFORMER "Maceo Parker"
TITLE "Life On Planet Groove"
FILE "01 - Maceo Parker - Shake Everything You've Got.wav" WAVE TRACK 01 AUDIO TITLE "Shake Everything You've Got" PERFORMER "Maceo Parker" PREGAP 00:00:50 INDEX 01 00:00:00
FILE "02 - Maceo Parker - Pass The Peas.wav" WAVE TRACK 02 AUDIO TITLE "Pass The Peas" PERFORMER "Maceo Parker" INDEX 01 00:00:00 TRACK 03 AUDIO TITLE "I Got You (I Feel Good)" PERFORMER "Maceo Parker" INDEX 00 11:13:47
FILE "03 - Maceo Parker - I Got You (I Feel Good).wav" WAVE INDEX 01 00:00:00 TRACK 04 AUDIO TITLE "Got To Get U" PERFORMER "Maceo Parker" INDEX 00 03:38:05
FILE "04 - Maceo Parker - Got To Get U.wav" WAVE INDEX 01 00:00:00 TRACK 05 AUDIO TITLE "Addictive Love" PERFORMER "Maceo Parker" INDEX 00 06:55:50
FILE "05 - Maceo Parker - Addictive Love.wav" WAVE INDEX 01 00:00:00 TRACK 06 AUDIO TITLE "Children's World" PERFORMER "Maceo Parker" INDEX 00 08:36:53
FILE "06 - Maceo Parker - Children's World.wav" WAVE INDEX 01 00:00:00 TRACK 07 AUDIO TITLE "Georgia On My Mind" PERFORMER "Maceo Parker" INDEX 00 06:07:30
FILE "07 - Maceo Parker - Georgia On My Mind.wav" WAVE INDEX 01 00:00:00 TRACK 08 AUDIO TITLE "Soul Power '92" PERFORMER "Maceo Parker" INDEX 00 07:12:00
FILE "08 - Maceo Parker - Soul Power '92.wav" WAVE INDEX 01 00:00:00
Приватный:
Нет (DHT включён)
Размер:
554.75 Мб (581,695,163 байт) » файлов: 16
Участники:
1 раздают, 0 качают (1 участников всего)
Внешние участники:
Нет внешних трекеров [ Обновить ]
17:42
88
RSS
Нет комментариев. Ваш будет первым!