Вы используете незарегистрированную версию компонента "Вкладки"!

Поиск

2008 Quincy Jones - 75th Birthday Celebration - Live at Montreux [Blu-ray]

2008 Quincy Jones - 75th Birthday Celebration - Live at Montreux [Blu-ray]
Описание:

Год выпуска: 2008
Страна: pic США
Студия: Eagle Rock Entertainment
Жанр: Jazz, Funk, R&B, Soul
Продолжительность: 02:36:22
Режиссер: Клауд Нобс / Claude Nobs

Треклист:
01. Introduction by Claude Nobs
02. The Good, The Bad, and The Ugly – Herbie Hancock, Patti Austin & Stevie Woods
03. Let The Good Times Roll – Rahsaan Patterson & James Moody
04. Makin’ Whoopee – Patti Austin
05. Moody’s Mood – James Moody & Patti Austin
06. The Television Song – James Moody & John Robinson
07. Honeysuckle Rose – Freda Payne & Joe Sample
08. Shiny Stockings – Freda Payne & Joe Sample
09. I’m Gonna Move To The Outskirts Of Town / In The Heat Of The Night – Mick Hucknall
10. If I Ever Lose This Heaven – Ledisi
11. Midnight Sun – Al Jarreau & Larry Williams
12. One Mint Julep – Petula Clark
13. Goin’ To Chicago Blues – Petula Clark & Paolo Nutini
14. My Ship / Summertime – Franco Ambrosetti
15. Smoke Gets In Your Eyes – Nana Mouskouri & James Morrison
16. Almost Like Being In Love – Nana Mouskouri & James Morrison
17. Miss Celie’s Blues (Sister) – Chaka Khan, Patti Austin & Greg Phillinganes
18. What’s Going On – Ledisi, James Morrison, Rahsaan Patterson, Tobias Preisig, Patrice Rushen & Toots Thielemans
19. Eyes Of Love (Carol’s Theme) / Bluesette – Toots Thielemans
20. Walking In Space – Chaka Khan & Lee Ritenour
21. Strawberry Letter 23 – Paolo Nutini & Lee Ritenour
23. How Do You Keep The Music Playing – Patti Austin
24. The Dude – Al Jarreau
25. Billie Jean – Naturally 7
26. Wall Of Sound – Naturally 7
27. Mama Aifambeni – Angelique Kidjo
28. State Of Independence – Angelique Kidjo & Larry Williams
29. Everything Must Change – Curtis Stigers
30. Cool Joe, Mean Joe (Killer Joe) – Herbie Hancock
31. Ai No Corrida – Patti Austin, Gabi Goldberg, Dorothea Lorene, Stevie Woods, Kent Stetler & Billy Cobham
32. Stuff Like That – Monty Alexander, Patti Austin, Petula Clark, Billy Cobham, Herbie Hancock, Chaka Khan, Angelique Kidjo, Beverley Knight, Nils Landgren, Ledisi, James Moody, James Morrison, Nana Mouskouri, Naturally 7, Rahsaan Patterson, Freda Payne, Patrice Rushen, Joe Sample, Curtis Stigers & Larry Williams

Описание: Ежегодный фестиваль джаза в Монтре всегда привлекает большие имена, но по-настоящему завораживающее шоу было на праздновании 75-летия Куинси Джонса в 2008 году. В честь праздника музыкант и мега-продюсер представил выступление, наполненное двумя с половиной часами музыки, а также пригласил более десятка талантливых исполнителей: Chaka Khan, Patti Austin, Paolo Nutini, Petula Clark, Al Jarreau. Они исполнили такие хиты, как "Stuff Like That", "Billie Jean", "What's Going On" и многие другие.

Качество: Blu-Ray
Формат: BDMV
Видео кодек: MPEG4 AVC
Аудио кодек: DTS, LPCM
Видео: 1920x1080i, 1.78:1, 29.970 fps, ~27000 Kbps
Аудио №1: pic Английский DTS-HD MA 5.1, 48 kHz, 16-bit, ~2893 kbps (DTS Core: 5.1 / 48 kHz / 1509 kbps / 16 bit)
Аудио №2: pic Английский Dolby Digital Audio 5.1, 48 kHz, DN -4 dB, ~448 kbps
Аудио №3: pic Английский LPCM 2.0, 48 kHz, 16 bit, ~1536 kbps

 
BDinfo

Disc Title: QUINCY_JONES_75TH_BIRTHDAY_CELEBRATION_MONTREUX
Disc Size: 46 281 079 032 bytes
Protection: AACS
BD-Java: No
BDInfo: 0.5.4
Notes:
BDINFO HOME:
Cinema Squid
http://www.cinemasquid.com/blu-ray/tools/bdinfo
INCLUDES FORUMS REPORT FOR:
AVS Forum Blu-ray Audio and Video Specifications Thread
http://www.avsforum.com/avs-vb/showthread.php?t=1155731
********************
PLAYLIST: 00003.MPLS
********************
< — BEGIN FORUMS PASTE --->

Код:

Total   Video
Title                                                           Codec   Length  Movie Size      Disc Size       Bitrate Bitrate Main Audio Track                          Secondary Audio Track
-----                                                           ------  — --------------  --------------  — ------- ------------------                        ---------------------
00003.MPLS                                                      AVC     2:36:22 39 705 071 616  46 281 079 032  33,86   27,00   DTS-HD Master 5.1 2893Kbps (48kHz/16-bit) DD AC3 5.1 448Kbps

Код:

DISC INFO:
Disc Title:     QUINCY_JONES_75TH_BIRTHDAY_CELEBRATION_MONTREUX
Disc Size:      46 281 079 032 bytes
Protection:     AACS
BD-Java:        No
BDInfo:         0.5.4
PLAYLIST REPORT:
Name:                   00003.MPLS
Length:                 2:36:22 (h:m:s)
Size:                   39 705 071 616 bytes
Total Bitrate:          33,86 Mbps
VIDEO:
Codec                   Bitrate             Description
-----                   -------             -----------
MPEG-4 AVC Video        27000 kbps          1080i / 29,970 fps / 16:9 / High Profile 4.1
AUDIO:
Codec                           Language        Bitrate         Description
-----                           --------        -------         -----------
DTS-HD Master Audio             English         2893 kbps       5.1 / 48 kHz / 2893 kbps / 16-bit (DTS Core: 5.1 / 48 kHz / 1509 kbps / 16-bit)
Dolby Digital Audio             English         448 kbps        5.1 / 48 kHz / 448 kbps / DN -4dB
LPCM Audio                      English         1536 kbps       2.0 / 48 kHz / 1536 kbps / 16-bit
FILES:
Name            Time In         Length          Size            Total Bitrate
----            -------         ------          ----            -------------
00005.M2TS      0:00:00.000     2:36:22.172     39 705 071 616  33 856
CHAPTERS:
Number          Time In         Length          Avg Video Rate  Max 1-Sec Rate  Max 1-Sec Time  Max 5-Sec Rate  Max 5-Sec Time  Max 10Sec Rate  Max 10Sec Time  Avg Frame Size  Max Frame Size  Max Frame Time
------          -------         ------          --------------  --------------  --------------  --------------  --------------  --------------  --------------  --------------  --------------  --------------
1               0:00:00.000     0:01:23.650     17 218 kbps     33 948 kbps     00:01:20.413    28 355 kbps     00:00:49.315    24 993 kbps     00:01:12.205    71 784 bytes    343 645 bytes   00:00:41.241
2               0:01:23.650     0:09:21.360     27 843 kbps     34 998 kbps     00:02:45.698    34 889 kbps     00:02:20.940    34 442 kbps     00:02:19.639    116 129 bytes   349 051 bytes   00:10:30.529
3               0:10:45.011     0:04:00.073     28 396 kbps     34 991 kbps     00:13:13.159    34 143 kbps     00:14:32.972    32 795 kbps     00:13:57.803    118 434 bytes   347 562 bytes   00:14:06.779
4               0:14:45.084     0:03:45.391     29 980 kbps     34 997 kbps     00:16:09.234    33 522 kbps     00:17:19.571    32 856 kbps     00:17:14.767    125 041 bytes   348 493 bytes   00:17:53.839
5               0:18:30.476     0:05:12.445     25 510 kbps     34 978 kbps     00:23:31.643    32 063 kbps     00:21:59.284    31 241 kbps     00:21:52.878    106 400 bytes   346 251 bytes   00:21:59.551
6               0:23:42.921     0:01:08.368     26 255 kbps     34 988 kbps     00:24:44.182    32 770 kbps     00:24:41.179    30 131 kbps     00:24:41.279    109 504 bytes   342 546 bytes   00:24:43.114
7               0:24:51.289     0:03:27.473     27 952 kbps     34 982 kbps     00:26:28.186    32 386 kbps     00:26:45.904    31 783 kbps     00:25:44.976    116 584 bytes   346 468 bytes   00:26:10.235
8               0:28:18.763     0:03:46.025     30 282 kbps     34 999 kbps     00:30:40.972    33 531 kbps     00:30:37.902    32 821 kbps     00:30:32.864    126 300 bytes   348 569 bytes   00:30:26.157
9               0:32:04.789     0:06:25.385     24 469 kbps     34 951 kbps     00:38:07.618    32 246 kbps     00:38:04.782    31 350 kbps     00:38:04.782    102 057 bytes   347 333 bytes   00:37:25.209
10              0:38:30.174     0:05:16.582     27 557 kbps     34 997 kbps     00:40:27.124    33 385 kbps     00:43:09.987    32 199 kbps     00:43:04.848    114 935 bytes   347 412 bytes   00:43:16.560
11              0:43:46.757     0:07:33.886     26 811 kbps     34 996 kbps     00:50:41.872    32 585 kbps     00:49:39.009    32 063 kbps     00:49:35.906    111 825 bytes   348 694 bytes   00:45:25.789
12              0:51:20.644     0:02:44.898     27 496 kbps     34 976 kbps     00:52:36.987    32 186 kbps     00:52:34.351    31 423 kbps     00:53:04.848    114 679 bytes   347 610 bytes   00:53:56.633
13              0:54:05.542     0:03:01.381     25 214 kbps     34 966 kbps     00:54:13.583    32 544 kbps     00:54:14.084    31 708 kbps     00:55:42.339    105 162 bytes   345 627 bytes   00:55:58.521
14              0:57:06.923     0:07:28.047     24 566 kbps     34 998 kbps     01:02:41.190    33 393 kbps     01:02:13.529    32 384 kbps     01:02:13.529    102 461 bytes   346 669 bytes   01:01:47.270
15              1:04:34.971     0:04:26.499     22 735 kbps     34 384 kbps     01:04:57.059    32 626 kbps     01:04:54.123    32 108 kbps     01:04:49.619    94 822 bytes    347 443 bytes   01:07:22.438
16              1:09:01.470     0:03:08.087     25 122 kbps     34 990 kbps     01:11:17.873    33 150 kbps     01:10:34.063    32 527 kbps     01:10:29.658    104 782 bytes   343 292 bytes   01:10:23.519
17              1:12:09.558     0:02:56.943     29 914 kbps     34 999 kbps     01:13:35.477    33 491 kbps     01:14:05.441    33 004 kbps     01:14:00.235    124 766 bytes   348 112 bytes   01:13:45.287
18              1:15:06.502     0:11:24.050     26 943 kbps     34 997 kbps     01:20:42.804    34 937 kbps     01:23:50.692    33 586 kbps     01:23:50.692    112 374 bytes   348 261 bytes   01:23:58.633
19              1:26:30.552     0:03:12.659     22 235 kbps     34 978 kbps     01:27:34.182    29 491 kbps     01:28:19.560    27 371 kbps     01:28:15.123    92 738 bytes    341 863 bytes   01:27:53.201
20              1:29:43.211     0:08:55.935     28 586 kbps     34 998 kbps     01:36:59.947    34 426 kbps     01:36:05.226    33 441 kbps     01:36:00.187    119 229 bytes   349 265 bytes   01:38:19.860
21              1:38:39.146     0:05:03.202     30 091 kbps     34 999 kbps     01:42:15.295    34 205 kbps     01:39:11.178    33 321 kbps     01:42:58.805    125 506 bytes   348 381 bytes   01:39:04.872
22              1:43:42.349     0:06:01.227     26 993 kbps     34 996 kbps     01:49:30.730    32 946 kbps     01:49:26.259    32 479 kbps     01:49:22.822    112 581 bytes   348 330 bytes   01:47:07.154
23              1:49:43.577     0:05:48.281     28 804 kbps     34 999 kbps     01:53:44.117    33 516 kbps     01:52:51.131    33 082 kbps     01:53:31.771    120 136 bytes   348 574 bytes   01:53:27.534
24              1:55:31.858     0:02:09.796     25 804 kbps     34 998 kbps     01:55:42.368    34 941 kbps     01:55:43.036    31 887 kbps     01:55:41.467    107 624 bytes   346 097 bytes   01:56:38.891
25              1:57:41.654     0:06:37.563     27 981 kbps     34 998 kbps     02:00:57.750    33 327 kbps     02:01:44.230    32 426 kbps     02:01:44.397    116 703 bytes   347 004 bytes   01:58:46.652
26              2:04:19.218     0:01:28.154     25 835 kbps     34 994 kbps     02:05:19.945    31 855 kbps     02:05:35.861    31 568 kbps     02:05:30.990    107 755 bytes   348 931 bytes   02:05:34.894
27              2:05:47.373     0:04:59.165     29 232 kbps     34 999 kbps     02:09:39.671    33 702 kbps     02:07:13.826    32 843 kbps     02:06:25.744    121 923 bytes   348 889 bytes   02:07:13.692
28              2:10:46.538     0:06:13.873     24 084 kbps     34 998 kbps     02:16:15.267    34 079 kbps     02:14:26.691    33 121 kbps     02:14:25.624    100 451 bytes   345 614 bytes   02:13:36.041
29              2:17:00.412     0:04:59.565     29 473 kbps     34 998 kbps     02:18:04.976    34 319 kbps     02:19:24.122    33 094 kbps     02:17:07.619    122 928 bytes   348 617 bytes   02:17:32.210
30              2:21:59.978     0:05:22.488     28 719 kbps     34 999 kbps     02:25:12.637    33 822 kbps     02:25:12.770    33 015 kbps     02:25:11.703    119 781 bytes   348 762 bytes   02:26:30.181
31              2:27:22.466     0:08:58.704     26 386 kbps     34 999 kbps     02:34:02.066    34 619 kbps     02:31:51.135    33 389 kbps     02:31:51.068    110 053 bytes   348 268 bytes   02:32:25.669
32              2:36:21.171     0:00:01.001     97 kbps         0 kbps          00:00:00.000    0 kbps          00:00:00.000    0 kbps          00:00:00.000    418 bytes       1 478 bytes     02:36:21.605
STREAM DIAGNOSTICS:
File            PID             Type            Codec           Language                Seconds                 Bitrate                 Bytes           Packets
----            ---             ----            -----           --------                --------------          --------------          -------------   -----
00005.M2TS      4113 (0x1011)   0x1B            AVC                                     9382,106                27 000                  31 664 340 196  172 393 046
00005.M2TS      4352 (0x1100)   0x80            LPCM            eng (English)           9382,106                1 542                   1 808 883 340   11 258 610
00005.M2TS      4353 (0x1101)   0x81            AC3             eng (English)           9382,106                448                     525 401 856     2 931 930
00005.M2TS      4354 (0x1102)   0x86            DTS-HD MA       eng (English)           9382,106                2 893                   3 392 683 872   19 899 320

< — END FORUMS PASTE ---->
QUICK SUMMARY:
Disc Title: QUINCY_JONES_75TH_BIRTHDAY_CELEBRATION_MONTREUX
Disc Size: 46 281 079 032 bytes
Protection: AACS
BD-Java: No
Playlist: 00003.MPLS
Size: 39 705 071 616 bytes
Length: 2:36:22
Total Bitrate: 33,86 Mbps
Video: MPEG-4 AVC Video / 27000 kbps / 1080i / 29,970 fps / 16:9 / High Profile 4.1
Audio: English / DTS-HD Master Audio / 5.1 / 48 kHz / 2893 kbps / 16-bit (DTS Core: 5.1 / 48 kHz / 1509 kbps / 16-bit)
Audio: English / Dolby Digital Audio / 5.1 / 48 kHz / 448 kbps / DN -4dB
Audio: English / LPCM Audio / 2.0 / 48 kHz / 1536 kbps / 16-bit
********************
PLAYLIST: 00001.MPLS
********************
< — BEGIN FORUMS PASTE --->

Код:

Total   Video
Title                                                           Codec   Length  Movie Size      Disc Size       Bitrate Bitrate Main Audio Track                          Secondary Audio Track
-----                                                           ------  — --------------  --------------  — ------- ------------------                        ---------------------
00001.MPLS                                                      AVC     0:26:32 5 580 398 592   46 281 079 032  28,03   25,00   LPCM 2.0 1536Kbps (48kHz/16-bit)

Код:

DISC INFO:
Disc Title:     QUINCY_JONES_75TH_BIRTHDAY_CELEBRATION_MONTREUX
Disc Size:      46 281 079 032 bytes
Protection:     AACS
BD-Java:        No
BDInfo:         0.5.4
PLAYLIST REPORT:
Name:                   00001.MPLS
Length:                 0:26:32 (h:m:s)
Size:                   5 580 398 592 bytes
Total Bitrate:          28,03 Mbps
VIDEO:
Codec                   Bitrate             Description
-----                   -------             -----------
MPEG-4 AVC Video        25000 kbps          1080i / 29,970 fps / 16:9 / High Profile 4.1
AUDIO:
Codec                           Language        Bitrate         Description
-----                           --------        -------         -----------
LPCM Audio                      English         1536 kbps       2.0 / 48 kHz / 1536 kbps / 16-bit
FILES:
Name            Time In         Length          Size            Total Bitrate
----            -------         ------          ----            -------------
00003.M2TS      0:00:00.000     0:26:32.624     5 580 398 592   28 031
CHAPTERS:
Number          Time In         Length          Avg Video Rate  Max 1-Sec Rate  Max 1-Sec Time  Max 5-Sec Rate  Max 5-Sec Time  Max 10Sec Rate  Max 10Sec Time  Avg Frame Size  Max Frame Size  Max Frame Time
------          -------         ------          --------------  --------------  --------------  --------------  --------------  --------------  --------------  --------------  --------------  --------------
1               0:00:00.000     0:05:21.654     22 401 kbps     34 999 kbps     00:01:17.677    33 938 kbps     00:03:44.891    33 263 kbps     00:03:44.290    93 420 bytes    346 349 bytes   00:03:47.493
2               0:05:21.654     0:04:12.352     23 003 kbps     34 993 kbps     00:08:28.975    33 894 kbps     00:08:26.105    32 424 kbps     00:08:26.339    95 943 bytes    342 111 bytes   00:08:29.375
3               0:09:34.006     0:07:15.568     26 995 kbps     34 998 kbps     00:15:41.440    33 951 kbps     00:15:39.305    33 746 kbps     00:15:34.533    112 592 bytes   348 037 bytes   00:12:48.934
4               0:16:49.575     0:03:04.717     24 088 kbps     34 972 kbps     00:18:09.621    33 111 kbps     00:18:07.419    29 693 kbps     00:18:03.515    100 466 bytes   346 632 bytes   00:17:01.153
5               0:19:54.293     0:06:37.330     26 671 kbps     34 998 kbps     00:24:48.620    34 149 kbps     00:21:21.713    33 629 kbps     00:21:19.678    111 240 bytes   345 746 bytes   00:20:22.487
6               0:26:31.623     0:00:01.001     96 kbps         0 kbps          00:00:00.000    0 kbps          00:00:00.000    0 kbps          00:00:00.000    416 bytes       1 467 bytes     00:26:32.190
STREAM DIAGNOSTICS:
File            PID             Type            Codec           Language                Seconds                 Bitrate                 Bytes           Packets
----            ---             ----            -----           --------                --------------          --------------          -------------   -----
00003.M2TS      4113 (0x1011)   0x1B            AVC                                     1592,491                25 002                  4 976 899 387   27 100 062
00003.M2TS      4352 (0x1100)   0x80            LPCM            eng (English)           1592,491                1 543                   307 058 100     1 911 150

< — END FORUMS PASTE ---->
QUICK SUMMARY:
Disc Title: QUINCY_JONES_75TH_BIRTHDAY_CELEBRATION_MONTREUX
Disc Size: 46 281 079 032 bytes
Protection: AACS
BD-Java: No
Playlist: 00001.MPLS
Size: 5 580 398 592 bytes
Length: 0:26:32
Total Bitrate: 28,03 Mbps
Video: MPEG-4 AVC Video / 25000 kbps / 1080i / 29,970 fps / 16:9 / High Profile 4.1
Audio: English / LPCM Audio / 2.0 / 48 kHz / 1536 kbps / 16-bit
********************
PLAYLIST: 00000.MPLS
********************
< — BEGIN FORUMS PASTE --->

Код:

Total   Video
Title                                                           Codec   Length  Movie Size      Disc Size       Bitrate Bitrate Main Audio Track                          Secondary Audio Track
-----                                                           ------  — --------------  --------------  — ------- ------------------                        ---------------------
00000.MPLS                                                      AVC     0:00:32 30 418 944      46 281 079 032  7,37    6,79    DD AC3 5.1 448Kbps

Код:

DISC INFO:
Disc Title:     QUINCY_JONES_75TH_BIRTHDAY_CELEBRATION_MONTREUX
Disc Size:      46 281 079 032 bytes
Protection:     AACS
BD-Java:        No
BDInfo:         0.5.4
PLAYLIST REPORT:
Name:                   00000.MPLS
Length:                 0:00:32 (h:m:s)
Size:                   30 418 944 bytes
Total Bitrate:          7,37 Mbps
VIDEO:
Codec                   Bitrate             Description
-----                   -------             -----------
MPEG-4 AVC Video        6785 kbps           1080i / 29,970 fps / 16:9 / High Profile 4.1
AUDIO:
Codec                           Language        Bitrate         Description
-----                           --------        -------         -----------
Dolby Digital Audio             English         448 kbps        5.1 / 48 kHz / 448 kbps / DN -4dB
FILES:
Name            Time In         Length          Size            Total Bitrate
----            -------         ------          ----            -------------
00000.M2TS      0:00:00.000     0:00:10.510     4 841 472       3 685
00002.M2TS      0:00:10.510     0:00:10.510     4 601 856       3 503
00001.M2TS      0:00:21.020     0:00:11.978     20 975 616      14 009
CHAPTERS:
Number          Time In         Length          Avg Video Rate  Max 1-Sec Rate  Max 1-Sec Time  Max 5-Sec Rate  Max 5-Sec Time  Max 10Sec Rate  Max 10Sec Time  Avg Frame Size  Max Frame Size  Max Frame Time
------          -------         ------          --------------  --------------  --------------  --------------  --------------  --------------  --------------  --------------  --------------  --------------
1               0:00:00.000     0:00:32.999     6 785 kbps      23 517 kbps     00:00:27.460    20 065 kbps     00:00:23.456    15 361 kbps     00:00:22.956    28 300 bytes    200 073 bytes   00:00:18.918
STREAM DIAGNOSTICS:
File            PID             Type            Codec           Language                Seconds                 Bitrate                 Bytes           Packets
----            ---             ----            -----           --------                --------------          --------------          -------------   -----
00000.M2TS      4113 (0x1011)   0x1B            AVC                                     10,410                  3 448                   4 486 469       24 858
00002.M2TS      4113 (0x1011)   0x1B            AVC                                     10,410                  3 270                   4 254 964       23 596
00001.M2TS      4113 (0x1011)   0x1B            AVC                                     11,912                  12 926                  19 246 846      105 046
00001.M2TS      4352 (0x1100)   0x81            AC3             eng (English)           11,912                  451                     672 000         3 750

< — END FORUMS PASTE ---->
QUICK SUMMARY:
Disc Title: QUINCY_JONES_75TH_BIRTHDAY_CELEBRATION_MONTREUX
Disc Size: 46 281 079 032 bytes
Protection: AACS
BD-Java: No
Playlist: 00000.MPLS
Size: 30 418 944 bytes
Length: 0:00:32
Total Bitrate: 7,37 Mbps
Video: MPEG-4 AVC Video / 6785 kbps / 1080i / 29,970 fps / 16:9 / High Profile 4.1
Audio: English / Dolby Digital Audio / 5.1 / 48 kHz / 448 kbps / DN -4dB

Any questions - support@pro-jazz.com. Есть вопросы - support@pro-jazz.com
491
Нет комментариев. Ваш будет первым!