Поиск

2007 Norah Jones - Austin City Limits [HDTVRip 720p]

2007 Norah Jones - Austin City Limits [HDTVRip 720p]

Год выпуска: 2007
Продолжительность: 54mn 30s
Качество: HDTVRip 720p
Контейнер: MKV
Видео кодек: h.264
Аудио кодек: AC3
Видео: 1280x720, 16:9, 5360 Kbps, 29.970 fps
Аудио: 384 Kbps, 48.0 KHz, 6 ch
Описание:
Выступление включает в себя композиции с ее дебютного альбома "Come Away With Me", который получил 8 премий Грэмми (в том числе 5 за личные заслуги)!

Треклист:
Come Away with Me
The Sun Doesn't Like You
Thinking About You
Be My Somebody
Rosie's Lullaby
Sunrise
Not Too Late
Sinkin' Soon
My Dear Country
Little Room
Broken
Creepin' In
Hands on the Wheel
+интервью
 

 
Mediainfo

General
Unique ID: 235457378014650946086172209041802053071 (0xB1237105C920C2C6B7DE7FDCEC90C5CF)
Complete name: \Norah.Jones.Austin.City Limits.2007.HDTV.720p.x264-HDL.mkv
Format: Matroska
Format version: Version 1
File size: 2.19 GiB
Duration: 54mn 30s
Overall bit rate: 5 745 Kbps
Encoded date: UTC 2007-10-19 20:00:20
Writing application: mkvmerge v2.0.2 ('You're My Flame') built on Feb 21 2007 23:40:55
Writing library: libebml v0.7.7 + libmatroska v0.8.1
Video
ID: 1
Format: AVC
Format/Info: Advanced Video Codec
Format profile: High@L5.1
Format settings, CABAC: Yes
Format settings, ReFrames: 11 frames
Codec ID: V_MPEG4/ISO/AVC
Duration: 54mn 30s
Bit rate: 5 360 Kbps
Width: 1 280 pixels
Height: 720 pixels
Display aspect ratio: 16:9
Frame rate mode: Constant
Frame rate: 29.970 fps
Color space: YUV
Chroma subsampling: 4:2:0
Bit depth: 8 bits
Scan type: Progressive
Bits/(Pixel*Frame): 0.194
Stream size: 2.00 GiB (91%)
Writing library: x264 core 56 svn-680
Encoding settings: cabac=1 / ref=8 / deblock=1:0:0 / analyse=0x3:0x133 / me=hex / subme=6 / brdo=1 / mixed_ref=1 / me_range=16 / chroma_me=1 / trellis=1 / 8x8dct=1 / cqm=2 / deadzone=21,11 / chroma_qp_offset=0 / threads=3 / nr=0 / decimate=1 / mbaff=0 / bframes=3 / b_pyramid=1 / b_adapt=1 / b_bias=0 / direct=1 / wpredb=1 / bime=1 / keyint=250 / keyint_min=25 / scenecut=40(pre) / rc=2pass / bitrate=5360 / ratetol=1.0 / rceq='blurCplx^(1-qComp)' / qcomp=0.60 / qpmin=10 / qpmax=51 / qpstep=4 / cplxblur=20.0 / qblur=0.5 / ip_ratio=1.40 / pb_ratio=1.30
Language: English
Default: Yes
Forced: No
Audio
ID: 2
Format: AC-3
Format/Info: Audio Coding 3
Mode extension: CM (complete main)
Format settings, Endianness: Big
Codec ID: A_AC3
Duration: 54mn 30s
Bit rate mode: Constant
Bit rate: 384 Kbps
Channel(s): 6 channels
Channel positions: Front: L C R, Side: L R, LFE
Sampling rate: 48.0 KHz
Bit depth: 16 bits
Compression mode: Lossy
Stream size: 150 MiB (7%)
Language: English
Default: Yes
Forced: No

 
Скриншоты

 

Скачивание доступно после регистрации!!
Приватный:
Нет (DHT включён)
Размер:
2.22 Гб (2,382,205,628 байт) » файлов: 2
Участники:
0 раздают, 0 качают (0 участников всего)
Внешние участники:
--- [ Обновить ]
54
RSS
Нет комментариев. Ваш будет первым!