Поиск

2008 Kenny G - An Evening of Rhythm & Romance [Blu-ray]

2008 Kenny G - An Evening of Rhythm & Romance [Blu-ray]
Состав:
  • Daniel Bejarno Drums
  • Robert Damper Keyboards, Piano
  • Kenny G Saxophone
  • Vail Johnson Bass
  • Geoff Kempin Executive Producer
  • Ron Powell Percussion
  • John Raymond Guitar
  • Terry Shand Executive Producer
Описание:

Год выпуска: 2008
Жанр: Smooth Jazz
Продолжительность: 01:37:27Качество: Blu-ray
Формат: BDMV
Видео кодек: MPEG-4 AVC
Аудио кодек: DTS, AC3
Видео: 1920x1080i, MPEG-4 AVC, 29.97 fps, 16:9, ~ 31.7 Mbps
Аудио:
DTS-HD MA 5.1, 48 kHz, 16-bit, 2287 kbps
DD 5.1, 48 kHz, 448 kbps
LPCM 2.0, 48 kHz, 16-bit, 1536 kbps
Субтитры (только в интервью): English, Dutch, French, German, Italian, Portuguese, Spanish

Треклист:
01. Home
02. Silhouette
03. Havana
04. G-Bop
05. You’re Beautiful
06. Forever In Love
07. Rhythm & Romance
08. Sax-o-loco
09. Besame Mucho
10. What A Wonderful World
11. Pick Up The Pieces
12. Cadenza
13. Songbird
Bonus Features
Introducing the show
Interview with Kenny G
Bonus Christmas tracks:
Deck The Halls / 12 Days Of Christmas
White Christmas
Santa Claus Is Coming To Town
Christmas track rehearsals:
Deck The Halls
Santa Claus Is Coming To Town

 
BDInfo

Disc Title: KENNY_G_AN_EVENING_OF_RHYTHM_ROMANCE
Disc Size: 40 465 969 502 bytes
Protection: AACS
BD-Java: No
BDInfo: 0.5.2
Notes:
BDINFO HOME AND REPORTS SUBMISSION:
Cinema Squid
http://www.cinemasquid.com/Tools.aspx
INCLUDES FORUMS REPORT FOR:
Unofficial Blu-ray Audio and Video Specifications Thread
http://www.avsforum.com/avs-vb/showthread.php?t=760714
http://forum.blu-ray.com/showthread.php?t=3338
********************
PLAYLIST: 00002.MPLS
********************
< — BEGIN FORUMS PASTE --->

Код:
Total   Video
Title                                                           Codec   Length  Movie Size      Disc Size       Bitrate Bitrate Main Audio Track                          Secondary Audio Track
-----                                                           ------  — --------------  --------------  — ------- ------------------                        ---------------------
00002.MPLS                                                      AVC     1:37:27 27 890 233 344  40 465 969 502  38,16   31,73   DTS-HD Master 5.1 2287Kbps (48kHz/16-bit) DD AC3 5.1 448Kbps
Код:
DISC INFO:
Disc Title:     KENNY_G_AN_EVENING_OF_RHYTHM_ROMANCE
Disc Size:      40 465 969 502 bytes
Protection:     AACS
BD-Java:        No
BDInfo:         0.5.2
PLAYLIST REPORT:
Name:                   00002.MPLS
Size:                   27 890 233 344 bytes
Length:                 1:37:27 (h:m:s)
Total Bitrate:          38,16 Mbps
Description:
VIDEO:
Codec                   Bitrate             Description
-----                   -------             -----------
MPEG-4 AVC Video        31730 kbps          1080i / 29,970 fps / 16:9 / High Profile 4.1
AUDIO:
Codec                           Language        Bitrate         Description
-----                           --------        -------         -----------
DTS-HD Master Audio             English         2287 kbps       5.1 / 48 kHz / 2287 kbps / 16-bit (DTS Core: 5.1 / 48 kHz / 1509 kbps / 16-bit)
Dolby Digital Audio             English         448 kbps        5.1 / 48 kHz / 448 kbps
LPCM Audio                      English         1536 kbps       2.0 / 48 kHz / 1536 kbps / 16-bit
FILES:
Name            Time In         Length          Size            Total Bitrate
----            -------         ------          ----            -------------
00000.M2TS      0:00:00.000     1:37:27.007     27 890 233 344  38 160
CHAPTERS:
Number          Time In         Length          Avg Video Rate  Max 1-Sec Rate  Max 1-Sec Time  Max 5-Sec Rate  Max 5-Sec Time  Max 10Sec Rate  Max 10Sec Time  Avg Frame Size  Max Frame Size  Max Frame Time
------          -------         ------          --------------  --------------  --------------  --------------  --------------  --------------  --------------  --------------  --------------  --------------
1               0:00:00.000     0:04:50.790     30 692 kbps     34 997 kbps     00:03:20.133    34 423 kbps     00:02:54.073    33 729 kbps     00:03:41.254    127 998 bytes   348 994 bytes   00:02:39.092
2               0:04:50.790     0:12:58.277     31 365 kbps     34 999 kbps     00:16:32.324    34 901 kbps     00:12:06.058    34 279 kbps     00:12:01.287    130 820 bytes   348 750 bytes   00:08:52.265
3               0:17:49.068     0:10:01.400     32 533 kbps     34 999 kbps     00:26:20.579    34 545 kbps     00:19:42.481    33 915 kbps     00:22:52.304    135 688 bytes   348 762 bytes   00:20:13.345
4               0:27:50.468     0:06:40.133     32 662 kbps     34 999 kbps     00:28:17.495    34 922 kbps     00:32:23.207    34 295 kbps     00:32:18.536    136 228 bytes   349 592 bytes   00:32:43.995
5               0:34:30.601     0:03:34.347     33 021 kbps     34 997 kbps     00:36:26.617    34 596 kbps     00:36:11.002    34 001 kbps     00:35:33.798    137 726 bytes   349 070 bytes   00:34:33.938
6               0:38:04.949     0:04:23.563     32 881 kbps     34 999 kbps     00:38:35.946    34 814 kbps     00:41:49.507    34 031 kbps     00:41:45.369    137 141 bytes   349 032 bytes   00:39:40.478
7               0:42:28.512     0:05:12.979     32 889 kbps     34 999 kbps     00:46:01.258    34 594 kbps     00:42:30.748    33 807 kbps     00:47:19.536    137 173 bytes   347 923 bytes   00:43:17.695
8               0:47:41.491     0:09:50.156     30 771 kbps     34 999 kbps     00:47:51.969    34 662 kbps     00:48:39.249    34 120 kbps     00:48:34.344    128 339 bytes   347 828 bytes   00:54:38.341
9               0:57:31.648     0:07:08.694     31 630 kbps     34 999 kbps     01:03:22.198    34 231 kbps     01:01:09.165    33 752 kbps     01:01:06.729    131 923 bytes   349 734 bytes   01:02:52.535
10              1:04:40.343     0:02:20.874     32 721 kbps     34 998 kbps     01:05:15.144    34 555 kbps     01:05:38.567    33 757 kbps     01:05:38.501    136 473 bytes   349 399 bytes   01:04:51.854
11              1:07:01.217     0:06:50.476     31 237 kbps     34 999 kbps     01:11:08.764    34 153 kbps     01:07:49.732    33 689 kbps     01:07:49.465    130 283 bytes   349 193 bytes   01:12:23.605
12              1:13:51.693     0:03:12.258     28 730 kbps     34 999 kbps     01:14:13.182    33 768 kbps     01:15:44.473    33 313 kbps     01:15:43.105    119 826 bytes   346 734 bytes   01:16:06.728
13              1:17:03.952     0:04:15.054     32 540 kbps     34 997 kbps     01:18:41.450    34 162 kbps     01:19:06.742    33 750 kbps     01:18:11.520    135 719 bytes   348 860 bytes   01:19:12.280
14              1:21:19.007     0:04:48.421     32 677 kbps     34 999 kbps     01:22:54.069    34 883 kbps     01:22:51.866    33 948 kbps     01:22:46.861    136 291 bytes   348 900 bytes   01:23:31.072
15              1:26:07.428     0:03:45.325     30 211 kbps     34 998 kbps     01:28:07.482    34 950 kbps     01:28:04.579    34 233 kbps     01:28:03.444    126 007 bytes   347 647 bytes   01:28:33.174
16              1:29:52.754     0:07:33.252     31 577 kbps     34 999 kbps     01:34:27.028    34 644 kbps     01:34:26.894    34 112 kbps     01:34:22.990    131 702 bytes   349 501 bytes   01:37:05.186
17              1:37:26.006     0:00:01.000     106 kbps        0 kbps          00:00:00.000    0 kbps          00:00:00.000    0 kbps          00:00:00.000    455 bytes       1 467 bytes     01:37:26.273
STREAM DIAGNOSTICS:
File            PID             Type            Codec           Language                Seconds                 Bitrate                 Bytes           Packets
----            ---             ----            -----           --------                --------------          --------------          -------------   -----
00000.M2TS      4113 (0x1011)   0x1B            AVC                                     5846,874                31 731                  23 190 753 709  126 226 205
00000.M2TS      4352 (0x1100)   0x80            LPCM            eng (English)           5846,874                1 542                   1 127 303 528   7 016 412
00000.M2TS      4353 (0x1101)   0x81            AC3             eng (English)           5846,874                448                     327 432 448     1 827 190
00000.M2TS      4354 (0x1102)   0x86            DTS-HD MA       eng (English)           5846,874                2 287                   1 671 409 832   9 995 902
< — END FORUMS PASTE ---->
QUICK SUMMARY:
Disc Title: KENNY_G_AN_EVENING_OF_RHYTHM_ROMANCE
Disc Size: 40 465 969 502 bytes
Protection: AACS
BD-Java: No
Playlist: 00002.MPLS
Size: 27 890 233 344 bytes
Length: 1:37:27
Total Bitrate: 38,16 Mbps
Video: MPEG-4 AVC Video / 31730 kbps / 1080i / 29,970 fps / 16:9 / High Profile 4.1
Audio: DTS-HD Master Audio / English / 2287 kbps / 5.1 / 48 kHz / 2287 kbps / 16-bit (DTS Core: 5.1 / 48 kHz / 1509 kbps / 16-bit)
Audio: Dolby Digital Audio / English / 448 kbps / 5.1 / 48 kHz / 448 kbps
Audio: LPCM Audio / English / 1536 kbps / 2.0 / 48 kHz / 1536 kbps / 16-bit
********************
PLAYLIST: 00005.MPLS
********************
< — BEGIN FORUMS PASTE --->
Код:
Total   Video
Title                                                           Codec   Length  Movie Size      Disc Size       Bitrate Bitrate Main Audio Track                          Secondary Audio Track
-----                                                           ------  — --------------  --------------  — ------- ------------------                        ---------------------
00005.MPLS                                                      AVC     0:13:11 3 189 559 296   40 465 969 502  32,26   28,47   LPCM 2.0 1536Kbps (48kHz/16-bit)
Код:
DISC INFO:
Disc Title:     KENNY_G_AN_EVENING_OF_RHYTHM_ROMANCE
Disc Size:      40 465 969 502 bytes
Protection:     AACS
BD-Java:        No
BDInfo:         0.5.2
PLAYLIST REPORT:
Name:                   00005.MPLS
Size:                   3 189 559 296 bytes
Length:                 0:13:11 (h:m:s)
Total Bitrate:          32,26 Mbps
Description:
VIDEO:
Codec                   Bitrate             Description
-----                   -------             -----------
MPEG-4 AVC Video        28466 kbps          1080i / 29,970 fps / 16:9 / High Profile 4.1
AUDIO:
Codec                           Language        Bitrate         Description
-----                           --------        -------         -----------
LPCM Audio                      English         1536 kbps       2.0 / 48 kHz / 1536 kbps / 16-bit
SUBTITLES:
Codec                           Language        Bitrate         Description
-----                           --------        -------         -----------
Presentation Graphics           English         84,859 kbps
Presentation Graphics           Dutch           72,914 kbps
Presentation Graphics           French          82,460 kbps
Presentation Graphics           German          80,475 kbps
Presentation Graphics           Italian         79,948 kbps
Presentation Graphics           Portuguese      78,559 kbps
Presentation Graphics           Spanish         78,566 kbps
FILES:
Name            Time In         Length          Size            Total Bitrate
----            -------         ------          ----            -------------
00004.M2TS      0:00:00.000     0:13:11.023     3 189 559 296   32 258
CHAPTERS:
Number          Time In         Length          Avg Video Rate  Max 1-Sec Rate  Max 1-Sec Time  Max 5-Sec Rate  Max 5-Sec Time  Max 10Sec Rate  Max 10Sec Time  Avg Frame Size  Max Frame Size  Max Frame Time
------          -------         ------          --------------  --------------  --------------  --------------  --------------  --------------  --------------  --------------  --------------  --------------
1               0:00:00.000     0:00:53.086     26 626 kbps     33 349 kbps     00:00:45.178    31 765 kbps     00:00:44.844    31 194 kbps     00:00:20.220    110 983 bytes   348 868 bytes   00:00:17.250
2               0:00:53.086     0:00:54.053     27 597 kbps     33 118 kbps     00:01:15.642    31 889 kbps     00:01:14.441    31 368 kbps     00:01:15.642    115 101 bytes   347 276 bytes   00:01:29.489
3               0:01:47.140     0:01:02.462     27 747 kbps     32 920 kbps     00:02:25.812    31 676 kbps     00:02:25.211    31 216 kbps     00:02:13.766    115 728 bytes   349 646 bytes   00:02:10.230
4               0:02:49.602     0:01:01.728     27 975 kbps     32 949 kbps     00:03:30.009    31 923 kbps     00:03:25.838    31 536 kbps     00:03:20.433    116 677 bytes   348 755 bytes   00:02:57.644
5               0:03:51.331     0:00:41.274     26 593 kbps     32 876 kbps     00:04:17.390    31 825 kbps     00:04:09.582    31 457 kbps     00:04:08.381    110 917 bytes   341 750 bytes   00:04:16.823
6               0:04:32.605     0:00:44.711     27 398 kbps     33 129 kbps     00:05:05.571    31 832 kbps     00:04:38.711    31 415 kbps     00:04:38.111    114 273 bytes   340 192 bytes   00:04:43.549
7               0:05:17.317     0:00:40.206     26 359 kbps     33 065 kbps     00:05:43.976    31 876 kbps     00:05:41.007    31 392 kbps     00:05:40.373    109 937 bytes   343 177 bytes   00:05:27.226
8               0:05:57.523     0:03:23.002     30 396 kbps     33 788 kbps     00:07:28.448    32 374 kbps     00:08:31.511    31 933 kbps     00:08:30.243    126 776 bytes   347 838 bytes   00:06:31.424
9               0:09:20.526     0:00:48.982     27 659 kbps     34 217 kbps     00:09:26.265    32 915 kbps     00:09:44.884    32 158 kbps     00:09:41.280    115 360 bytes   343 277 bytes   00:09:26.299
10              0:10:09.508     0:01:06.266     28 326 kbps     34 394 kbps     00:10:38.604    33 135 kbps     00:10:37.336    32 370 kbps     00:10:35.601    118 145 bytes   348 671 bytes   00:10:53.052
11              0:11:15.775     0:01:54.247     29 475 kbps     33 921 kbps     00:12:41.227    32 646 kbps     00:12:40.159    32 101 kbps     00:12:40.626    122 937 bytes   348 036 bytes   00:12:03.556
12              0:13:10.022     0:00:01.000     105 kbps        0 kbps          00:00:00.000    0 kbps          00:00:00.000    0 kbps          00:00:00.000    454 bytes       1 465 bytes     00:13:10.222
STREAM DIAGNOSTICS:
File            PID             Type            Codec           Language                Seconds                 Bitrate                 Bytes           Packets
----            ---             ----            -----           --------                --------------          --------------          -------------   -----
00004.M2TS      4113 (0x1011)   0x1B            AVC                                     790,923                 28 470                  2 814 689 139   15 324 474
00004.M2TS      4352 (0x1100)   0x80            LPCM            eng (English)           790,923                 1 543                   152 509 620     949 230
00004.M2TS      4608 (0x1200)   0x90            PGS             eng (English)           790,923                 85                      8 390 640       47 279
00004.M2TS      4609 (0x1201)   0x90            PGS             deu (German)            790,923                 80                      7 957 159       45 020
00004.M2TS      4610 (0x1202)   0x90            PGS             spa (Spanish)           790,923                 79                      7 768 443       43 992
00004.M2TS      4611 (0x1203)   0x90            PGS             fra (French)            790,923                 82                      8 153 491       46 092
00004.M2TS      4612 (0x1204)   0x90            PGS             ita (Italian)           790,923                 80                      7 905 054       44 740
00004.M2TS      4613 (0x1205)   0x90            PGS             nld (Dutch)             790,923                 73                      7 209 579       40 965
00004.M2TS      4614 (0x1206)   0x90            PGS             por (Portuguese)        790,923                 79                      7 767 746       43 988
< — END FORUMS PASTE ---->
QUICK SUMMARY:
Disc Title: KENNY_G_AN_EVENING_OF_RHYTHM_ROMANCE
Disc Size: 40 465 969 502 bytes
Protection: AACS
BD-Java: No
Playlist: 00005.MPLS
Size: 3 189 559 296 bytes
Length: 0:13:11
Total Bitrate: 32,26 Mbps
Video: MPEG-4 AVC Video / 28466 kbps / 1080i / 29,970 fps / 16:9 / High Profile 4.1
Audio: LPCM Audio / English / 1536 kbps / 2.0 / 48 kHz / 1536 kbps / 16-bit
Subtitle: English / 84,859 kbps
Subtitle: Dutch / 72,914 kbps
Subtitle: French / 82,460 kbps
Subtitle: German / 80,475 kbps
Subtitle: Italian / 79,948 kbps
Subtitle: Portuguese / 78,559 kbps
Subtitle: Spanish / 78,566 kbps
********************
PLAYLIST: 00003.MPLS
********************
< — BEGIN FORUMS PASTE --->
Код:
Total   Video
Title                                                           Codec   Length  Movie Size      Disc Size       Bitrate Bitrate Main Audio Track                          Secondary Audio Track
-----                                                           ------  — --------------  --------------  — ------- ------------------                        ---------------------
00003.MPLS                                                      AVC     0:12:23 3 545 524 224   40 465 969 502  38,17   31,80   DTS-HD Master 5.1 2228Kbps (48kHz/16-bit) DD AC3 5.1 448Kbps
Код:
DISC INFO:
Disc Title:     KENNY_G_AN_EVENING_OF_RHYTHM_ROMANCE
Disc Size:      40 465 969 502 bytes
Protection:     AACS
BD-Java:        No
BDInfo:         0.5.2
PLAYLIST REPORT:
Name:                   00003.MPLS
Size:                   3 545 524 224 bytes
Length:                 0:12:23 (h:m:s)
Total Bitrate:          38,17 Mbps
Description:
VIDEO:
Codec                   Bitrate             Description
-----                   -------             -----------
MPEG-4 AVC Video        31801 kbps          1080i / 29,970 fps / 16:9 / High Profile 4.1
AUDIO:
Codec                           Language        Bitrate         Description
-----                           --------        -------         -----------
DTS-HD Master Audio             English         2228 kbps       5.1 / 48 kHz / 2228 kbps / 16-bit (DTS Core: 5.1 / 48 kHz / 1509 kbps / 16-bit)
Dolby Digital Audio             English         448 kbps        5.1 / 48 kHz / 448 kbps
LPCM Audio                      English         1536 kbps       2.0 / 48 kHz / 1536 kbps / 16-bit
FILES:
Name            Time In         Length          Size            Total Bitrate
----            -------         ------          ----            -------------
00001.M2TS      0:00:00.000     0:12:23.042     3 545 524 224   38 173
CHAPTERS:
Number          Time In         Length          Avg Video Rate  Max 1-Sec Rate  Max 1-Sec Time  Max 5-Sec Rate  Max 5-Sec Time  Max 10Sec Rate  Max 10Sec Time  Avg Frame Size  Max Frame Size  Max Frame Time
------          -------         ------          --------------  --------------  --------------  --------------  --------------  --------------  --------------  --------------  --------------  --------------
1               0:00:00.000     0:03:24.370     32 068 kbps     34 997 kbps     00:00:22.055    34 830 kbps     00:03:03.283    33 798 kbps     00:02:58.244    133 727 bytes   347 750 bytes   00:01:02.195
2               0:03:24.370     0:03:09.389     31 736 kbps     34 999 kbps     00:03:37.517    34 256 kbps     00:03:35.315    33 920 kbps     00:03:30.510    132 364 bytes   348 338 bytes   00:04:55.228
3               0:06:33.760     0:05:48.281     31 772 kbps     34 998 kbps     00:07:00.386    34 950 kbps     00:08:46.926    34 217 kbps     00:08:46.859    132 515 bytes   348 223 bytes   00:09:45.685
4               0:12:22.041     0:00:01.000     97 kbps         0 kbps          00:00:00.000    0 kbps          00:00:00.000    0 kbps          00:00:00.000    418 bytes       1 465 bytes     00:12:22.508
STREAM DIAGNOSTICS:
File            PID             Type            Codec           Language                Seconds                 Bitrate                 Bytes           Packets
----            ---             ----            -----           --------                --------------          --------------          -------------   -----
00001.M2TS      4113 (0x1011)   0x1B            AVC                                     742,909                 31 807                  2 953 706 558   16 076 866
00001.M2TS      4352 (0x1100)   0x80            LPCM            eng (English)           742,909                 1 543                   143 259 076     891 654
00001.M2TS      4353 (0x1101)   0x81            AC3             eng (English)           742,909                 448                     41 612 032      232 210
00001.M2TS      4354 (0x1102)   0x86            DTS-HD MA       eng (English)           742,909                 2 228                   206 928 676     1 240 599
< — END FORUMS PASTE ---->
QUICK SUMMARY:
Disc Title: KENNY_G_AN_EVENING_OF_RHYTHM_ROMANCE
Disc Size: 40 465 969 502 bytes
Protection: AACS
BD-Java: No
Playlist: 00003.MPLS
Size: 3 545 524 224 bytes
Length: 0:12:23
Total Bitrate: 38,17 Mbps
Video: MPEG-4 AVC Video / 31801 kbps / 1080i / 29,970 fps / 16:9 / High Profile 4.1
Audio: DTS-HD Master Audio / English / 2228 kbps / 5.1 / 48 kHz / 2228 kbps / 16-bit (DTS Core: 5.1 / 48 kHz / 1509 kbps / 16-bit)
Audio: Dolby Digital Audio / English / 448 kbps / 5.1 / 48 kHz / 448 kbps
Audio: LPCM Audio / English / 1536 kbps / 2.0 / 48 kHz / 1536 kbps / 16-bit
********************
PLAYLIST: 00004.MPLS
********************
< — BEGIN FORUMS PASTE --->
Код:
Total   Video
Title                                                           Codec   Length  Movie Size      Disc Size       Bitrate Bitrate Main Audio Track                          Secondary Audio Track
-----                                                           ------  — --------------  --------------  — ------- ------------------                        ---------------------
00004.MPLS                                                      AVC     0:05:40 1 383 438 336   40 465 969 502  32,55   29,33   LPCM 2.0 1536Kbps (48kHz/16-bit)
Код:
DISC INFO:
Disc Title:     KENNY_G_AN_EVENING_OF_RHYTHM_ROMANCE
Disc Size:      40 465 969 502 bytes
Protection:     AACS
BD-Java:        No
BDInfo:         0.5.2
PLAYLIST REPORT:
Name:                   00004.MPLS
Size:                   1 383 438 336 bytes
Length:                 0:05:40 (h:m:s)
Total Bitrate:          32,55 Mbps
Description:
VIDEO:
Codec                   Bitrate             Description
-----                   -------             -----------
MPEG-4 AVC Video        29328 kbps          1080i / 29,970 fps / 16:9 / High Profile 4.1
AUDIO:
Codec                           Language        Bitrate         Description
-----                           --------        -------         -----------
LPCM Audio                      English         1536 kbps       2.0 / 48 kHz / 1536 kbps / 16-bit
FILES:
Name            Time In         Length          Size            Total Bitrate
----            -------         ------          ----            -------------
00003.M2TS      0:00:00.000     0:05:40.039     1 383 438 336   32 548
CHAPTERS:
Number          Time In         Length          Avg Video Rate  Max 1-Sec Rate  Max 1-Sec Time  Max 5-Sec Rate  Max 5-Sec Time  Max 10Sec Rate  Max 10Sec Time  Avg Frame Size  Max Frame Size  Max Frame Time
------          -------         ------          --------------  --------------  --------------  --------------  --------------  --------------  --------------  --------------  --------------  --------------
1               0:00:00.000     0:05:39.038     29 414 kbps     34 997 kbps     00:02:29.816    33 409 kbps     00:04:58.298    32 688 kbps     00:00:07.574    122 670 bytes   349 157 bytes   00:04:52.091
2               0:05:39.038     0:00:01.000     105 kbps        0 kbps          00:00:00.000    0 kbps          00:00:00.000    0 kbps          00:00:00.000    454 bytes       1 466 bytes     00:05:39.238
STREAM DIAGNOSTICS:
File            PID             Type            Codec           Language                Seconds                 Bitrate                 Bytes           Packets
----            ---             ----            -----           --------                --------------          --------------          -------------   -----
00003.M2TS      4113 (0x1011)   0x1B            AVC                                     339,940                 29 337                  1 246 586 983   6 785 963
00003.M2TS      4352 (0x1100)   0x80            LPCM            eng (English)           339,940                 1 543                   65 559 712      408 048
< — END FORUMS PASTE ---->
QUICK SUMMARY:
Disc Title: KENNY_G_AN_EVENING_OF_RHYTHM_ROMANCE
Disc Size: 40 465 969 502 bytes
Protection: AACS
BD-Java: No
Playlist: 00004.MPLS
Size: 1 383 438 336 bytes
Length: 0:05:40
Total Bitrate: 32,55 Mbps
Video: MPEG-4 AVC Video / 29328 kbps / 1080i / 29,970 fps / 16:9 / High Profile 4.1
Audio: LPCM Audio / English / 1536 kbps / 2.0 / 48 kHz / 1536 kbps / 16-bit
********************
PLAYLIST: 00008.MPLS
********************
< — BEGIN FORUMS PASTE --->
Код:
Total   Video
Title                                                           Codec   Length  Movie Size      Disc Size       Bitrate Bitrate Main Audio Track                          Secondary Audio Track
-----                                                           ------  — --------------  --------------  — ------- ------------------                        ---------------------
00008.MPLS                                                      AVC     0:04:46 1 196 974 080   40 465 969 502  33,44   30,18   LPCM 2.0 1536Kbps (48kHz/16-bit)
Код:
DISC INFO:
Disc Title:     KENNY_G_AN_EVENING_OF_RHYTHM_ROMANCE
Disc Size:      40 465 969 502 bytes
Protection:     AACS
BD-Java:        No
BDInfo:         0.5.2
PLAYLIST REPORT:
Name:                   00008.MPLS
Size:                   1 196 974 080 bytes
Length:                 0:04:46 (h:m:s)
Total Bitrate:          33,44 Mbps
Description:
VIDEO:
Codec                   Bitrate             Description
-----                   -------             -----------
MPEG-4 AVC Video        30180 kbps          1080i / 29,970 fps / 16:9 / High Profile 4.1
AUDIO:
Codec                           Language        Bitrate         Description
-----                           --------        -------         -----------
LPCM Audio                      English         1536 kbps       2.0 / 48 kHz / 1536 kbps / 16-bit
FILES:
Name            Time In         Length          Size            Total Bitrate
----            -------         ------          ----            -------------
00006.M2TS      0:00:00.000     0:04:46.386     1 196 974 080   33 437
CHAPTERS:
Number          Time In         Length          Avg Video Rate  Max 1-Sec Rate  Max 1-Sec Time  Max 5-Sec Rate  Max 5-Sec Time  Max 10Sec Rate  Max 10Sec Time  Avg Frame Size  Max Frame Size  Max Frame Time
------          -------         ------          --------------  --------------  --------------  --------------  --------------  --------------  --------------  --------------  --------------  --------------
1               0:00:00.000     0:04:45.385     30 285 kbps     34 996 kbps     00:04:43.182    32 818 kbps     00:03:54.567    32 111 kbps     00:03:49.529    126 299 bytes   348 673 bytes   00:00:23.823
2               0:04:45.385     0:00:01.001     106 kbps        0 kbps          00:00:00.000    0 kbps          00:00:00.000    0 kbps          00:00:00.000    455 bytes       1 466 bytes     00:04:45.685
STREAM DIAGNOSTICS:
File            PID             Type            Codec           Language                Seconds                 Bitrate                 Bytes           Packets
----            ---             ----            -----           --------                --------------          --------------          -------------   -----
00006.M2TS      4113 (0x1011)   0x1B            AVC                                     286,286                 30 190                  1 080 374 322   5 880 963
00006.M2TS      4352 (0x1100)   0x80            LPCM            eng (English)           286,286                 1 543                   55 215 992      343 668
< — END FORUMS PASTE ---->
QUICK SUMMARY:
Disc Title: KENNY_G_AN_EVENING_OF_RHYTHM_ROMANCE
Disc Size: 40 465 969 502 bytes
Protection: AACS
BD-Java: No
Playlist: 00008.MPLS
Size: 1 196 974 080 bytes
Length: 0:04:46
Total Bitrate: 33,44 Mbps
Video: MPEG-4 AVC Video / 30180 kbps / 1080i / 29,970 fps / 16:9 / High Profile 4.1
Audio: LPCM Audio / English / 1536 kbps / 2.0 / 48 kHz / 1536 kbps / 16-bit
********************
PLAYLIST: 00006.MPLS
********************
< — BEGIN FORUMS PASTE --->
Код:
Total   Video
Title                                                           Codec   Length  Movie Size      Disc Size       Bitrate Bitrate Main Audio Track                          Secondary Audio Track
-----                                                           ------  — --------------  --------------  — ------- ------------------                        ---------------------
00006.MPLS                                                      AVC     0:03:00 718 178 304     40 465 969 502  31,90   28,71   LPCM 2.0 1536Kbps (48kHz/16-bit)
Код:
DISC INFO:
Disc Title:     KENNY_G_AN_EVENING_OF_RHYTHM_ROMANCE
Disc Size:      40 465 969 502 bytes
Protection:     AACS
BD-Java:        No
BDInfo:         0.5.2
PLAYLIST REPORT:
Name:                   00006.MPLS
Size:                   718 178 304 bytes
Length:                 0:03:00 (h:m:s)
Total Bitrate:          31,90 Mbps
Description:
VIDEO:
Codec                   Bitrate             Description
-----                   -------             -----------
MPEG-4 AVC Video        28711 kbps          1080i / 29,970 fps / 16:9 / High Profile 4.1
AUDIO:
Codec                           Language        Bitrate         Description
-----                           --------        -------         -----------
LPCM Audio                      English         1536 kbps       2.0 / 48 kHz / 1536 kbps / 16-bit
FILES:
Name            Time In         Length          Size            Total Bitrate
----            -------         ------          ----            -------------
00002.M2TS      0:00:00.000     0:03:00.079     718 178 304     31 905
CHAPTERS:
Number          Time In         Length          Avg Video Rate  Max 1-Sec Rate  Max 1-Sec Time  Max 5-Sec Rate  Max 5-Sec Time  Max 10Sec Rate  Max 10Sec Time  Avg Frame Size  Max Frame Size  Max Frame Time
------          -------         ------          --------------  --------------  --------------  --------------  --------------  --------------  --------------  --------------  --------------  --------------
1               0:00:00.000     0:02:59.078     28 871 kbps     34 978 kbps     00:00:24.958    30 962 kbps     00:00:41.241    30 560 kbps     00:00:41.841    120 394 bytes   336 553 bytes   00:00:44.277
2               0:02:59.078     0:00:01.001     105 kbps        0 kbps          00:00:00.000    0 kbps          00:00:00.000    0 kbps          00:00:00.000    454 bytes       1 465 bytes     00:02:59.412
STREAM DIAGNOSTICS:
File            PID             Type            Codec           Language                Seconds                 Bitrate                 Bytes           Packets
----            ---             ----            -----           --------                --------------          --------------          -------------   -----
00002.M2TS      4113 (0x1011)   0x1B            AVC                                     180,013                 28 722                  646 287 714     3 518 363
00002.M2TS      4352 (0x1100)   0x80            LPCM            eng (English)           180,013                 1 543                   34 719 424      216 096
< — END FORUMS PASTE ---->
QUICK SUMMARY:
Disc Title: KENNY_G_AN_EVENING_OF_RHYTHM_ROMANCE
Disc Size: 40 465 969 502 bytes
Protection: AACS
BD-Java: No
Playlist: 00006.MPLS
Size: 718 178 304 bytes
Length: 0:03:00
Total Bitrate: 31,90 Mbps
Video: MPEG-4 AVC Video / 28711 kbps / 1080i / 29,970 fps / 16:9 / High Profile 4.1
Audio: LPCM Audio / English / 1536 kbps / 2.0 / 48 kHz / 1536 kbps / 16-bit
********************
PLAYLIST: 00007.MPLS
********************
< — BEGIN FORUMS PASTE --->
Код:
Total   Video
Title                                                           Codec   Length  Movie Size      Disc Size       Bitrate Bitrate Main Audio Track                          Secondary Audio Track
-----                                                           ------  — --------------  --------------  — ------- ------------------                        ---------------------
00007.MPLS                                                      AVC     0:02:42 723 916 800     40 465 969 502  35,53   29,21   DTS-HD Master 5.1 2290Kbps (48kHz/16-bit) DD AC3 5.1 448Kbps
Код:
DISC INFO:
Disc Title:     KENNY_G_AN_EVENING_OF_RHYTHM_ROMANCE
Disc Size:      40 465 969 502 bytes
Protection:     AACS
BD-Java:        No
BDInfo:         0.5.2
PLAYLIST REPORT:
Name:                   00007.MPLS
Size:                   723 916 800 bytes
Length:                 0:02:42 (h:m:s)
Total Bitrate:          35,53 Mbps
Description:
VIDEO:
Codec                   Bitrate             Description
-----                   -------             -----------
MPEG-4 AVC Video        29206 kbps          1080i / 29,970 fps / 16:9 / High Profile 4.1
AUDIO:
Codec                           Language        Bitrate         Description
-----                           --------        -------         -----------
DTS-HD Master Audio             English         2290 kbps       5.1 / 48 kHz / 2290 kbps / 16-bit (DTS Core: 5.1 / 48 kHz / 1509 kbps / 16-bit)
Dolby Digital Audio             English         448 kbps        5.1 / 48 kHz / 448 kbps
LPCM Audio                      English         1536 kbps       2.0 / 48 kHz / 1536 kbps / 16-bit
FILES:
Name            Time In         Length          Size            Total Bitrate
----            -------         nbsp;------          ----            -------------
00010.M2TS      0:00:00.000     0:02:42.996     723 916 800     35 530
CHAPTERS:
Number          Time In         Length          Avg Video Rate  Max 1-Sec Rate  Max 1-Sec Time  Max 5-Sec Rate  Max 5-Sec Time  Max 10Sec Rate  Max 10Sec Time  Avg Frame Size  Max Frame Size  Max Frame Time
------          -------         ------          --------------  --------------  --------------  --------------  --------------  --------------  --------------  --------------  --------------  --------------
1               0:00:00.000     0:02:41.995     29 386 kbps     34 998 kbps     00:01:36.262    34 405 kbps     00:01:33.927    33 831 kbps     00:01:29.022    122 539 bytes   347 808 bytes   00:02:00.186
2               0:02:41.995     0:00:01.000     105 kbps        0 kbps          00:00:00.000    0 kbps          00:00:00.000    0 kbps          00:00:00.000    452 bytes       1 464 bytes     00:02:42.262
STREAM DIAGNOSTICS:
File            PID             Type            Codec           Language                Seconds                 Bitrate                 Bytes           Packets
----            ---             ----            -----           --------                --------------          --------------          -------------   -----
00010.M2TS      4113 (0x1011)   0x1B            AVC                                     162,863                 29 230                  595 062 549     3 239 353
00010.M2TS      4352 (0x1100)   0x80            LPCM            eng (English)           162,863                 1 544                   31 426 400      195 600
00010.M2TS      4353 (0x1101)   0x81            AC3             eng (English)           162,863                 448                     9 128 448       50 940
00010.M2TS      4354 (0x1102)   0x86            DTS-HD MA       eng (English)           162,863                 2 292                   46 658 628      279 018
< — END FORUMS PASTE ---->
QUICK SUMMARY:
Disc Title: KENNY_G_AN_EVENING_OF_RHYTHM_ROMANCE
Disc Size: 40 465 969 502 bytes
Protection: AACS
BD-Java: No
Playlist: 00007.MPLS
Size: 723 916 800 bytes
Length: 0:02:42
Total Bitrate: 35,53 Mbps
Video: MPEG-4 AVC Video / 29206 kbps / 1080i / 29,970 fps / 16:9 / High Profile 4.1
Audio: DTS-HD Master Audio / English / 2290 kbps / 5.1 / 48 kHz / 2290 kbps / 16-bit (DTS Core: 5.1 / 48 kHz / 1509 kbps / 16-bit)
Audio: Dolby Digital Audio / English / 448 kbps / 5.1 / 48 kHz / 448 kbps
Audio: LPCM Audio / English / 1536 kbps / 2.0 / 48 kHz / 1536 kbps / 16-bit
********************
PLAYLIST: 00000.MPLS
********************
< — BEGIN FORUMS PASTE --->
Код:
Total   Video
Title                                                           Codec   Length  Movie Size      Disc Size       Bitrate Bitrate Main Audio Track                          Secondary Audio Track
-----                                                           ------  — --------------  --------------  — ------- ------------------                        ---------------------
00000.MPLS                                                      AVC     0:00:32 30 418 944      40 465 969 502  7,37    6,79    DD AC3 5.1 448Kbps
Код:
DISC INFO:
Disc Title:     KENNY_G_AN_EVENING_OF_RHYTHM_ROMANCE
Disc Size:      40 465 969 502 bytes
Protection:     AACS
BD-Java:        No
BDInfo:         0.5.2
PLAYLIST REPORT:
Name:                   00000.MPLS
Size:                   30 418 944 bytes
Length:                 0:00:32 (h:m:s)
Total Bitrate:          7,37 Mbps
Description:
VIDEO:
Codec                   Bitrate             Description
-----                   -------             -----------
MPEG-4 AVC Video        6785 kbps           1080i / 29,970 fps / 16:9 / High Profile 4.1
AUDIO:
Codec                           Language        Bitrate         Description
-----                           --------        -------         -----------
Dolby Digital Audio             English         448 kbps        5.1 / 48 kHz / 448 kbps
FILES:
Name            Time In         Length          Size            Total Bitrate
----            -------         ------          ----            -------------
00005.M2TS      0:00:00.000     0:00:10.510     4 841 472       3 685
00009.M2TS      0:00:10.510     0:00:10.510     4 601 856       3 503
00008.M2TS      0:00:21.020     0:00:11.978     20 975 616      14 009
CHAPTERS:
Number          Time In         Length          Avg Video Rate  Max 1-Sec Rate  Max 1-Sec Time  Max 5-Sec Rate  Max 5-Sec Time  Max 10Sec Rate  Max 10Sec Time  Avg Frame Size  Max Frame Size  Max Frame Time
------          -------         ------          --------------  --------------  --------------  --------------  --------------  --------------  --------------  --------------  --------------  --------------
1               0:00:00.000     0:00:32.999     6 785 kbps      23 517 kbps     00:00:27.460    20 065 kbps     00:00:23.456    15 361 kbps     00:00:22.956    28 300 bytes    200 073 bytes   00:00:18.918
STREAM DIAGNOSTICS:
File            PID             Type            Codec           Language                Seconds                 Bitrate                 Bytes           Packets
----            ---             ----            -----           --------                --------------          --------------          -------------   -----
00005.M2TS      4113 (0x1011)   0x1B            AVC                                     10,410                  3 448                   4 486 469       24 858
00009.M2TS      4113 (0x1011)   0x1B            AVC                                     10,410                  3 270                   4 254 964       23 596
00008.M2TS      4113 (0x1011)   0x1B            AVC                                     11,912                  12 926                  19 246 846      105 046
00008.M2TS      4352 (0x1100)   0x81            AC3             eng (English)           11,912                  451                     672 000         3 750
< — END FORUMS PASTE ---->
QUICK SUMMARY:
Disc Title: KENNY_G_AN_EVENING_OF_RHYTHM_ROMANCE
Disc Size: 40 465 969 502 bytes
Protection: AACS
BD-Java: No
Playlist: 00000.MPLS
Size: 30 418 944 bytes
Length: 0:00:32
Total Bitrate: 7,37 Mbps
Video: MPEG-4 AVC Video / 6785 kbps / 1080i / 29,970 fps / 16:9 / High Profile 4.1
Audio: Dolby Digital Audio / English / 448 kbps / 5.1 / 48 kHz / 448 kbps
 
Скриншоты

 
Фото

 

Приватный:
Нет (DHT включён)
Размер:
37.69 Гб (40,465,969,502 байт) » файлов: 92
Участники:
2 раздают, 0 качают (2 участников всего)
Внешние участники:
5 раздают, 1 качают (6 участников всего) [ Обновить ]
Скорость:
0/c 722.00 байт/c
No seeders - write a personal message to user M0p94ok. Нет сидеров - пишите личное сообщение пользователю M0p94ok.
403
Нет комментариев. Ваш будет первым!