Поиск

2008 Quincy Jones - 75th Birthday Celebration - Live at Montreux [BDrip 720p]

2008 Quincy Jones - 75th Birthday Celebration - Live at Montreux [BDrip 720p]
Описание:

Ежегодный фестиваль джаза в Монтре всегда привлекает большие имена, но по-настоящему завораживающее шоу было на праздновании 75-летия Куинси Джонса в 2008 году. Для праздника музыкант и мега-продюсер сделал выступление, Featuring два с половиной часа музыки и пригласил десятки талантливых исполнителей. Chaka Khan, Патти Остин, Паоло Нутини, Петулы Кларк, и Al Jarreau, которые исполняли такие хиты, как "Stuff Like That", "Billie Jean" и "What's Going On".

 
MediaInfo

General
Complete name: F:\09.08.05.Quincy.Jones-75th.Birthday.Celebration.Live.at.Montreux.2008.Blu-ray.720p.x264.DTS-MySiLU\Quincy.Jones.-75th.Birthday.Celebration.Live.at.Montreux.2008.Blu-ray.720p.x264.DTS.mkv
Format: Matroska
File size: 8.59 GiB
Duration: 2h 36mn
Overall bit rate: 7 865 Kbps
Encoded date: UTC 2009-08-05 08:54:17
Writing application: mkvmerge v2.9.7 ('Tenderness') built on Jul 1 2009 18:43:35
Writing library: libebml v0.7.7 + libmatroska v0.8.1
Video
ID: 1
Format: AVC
Format/Info: Advanced Video Codec
Format profile: High@L4.1
Format settings, CABAC: Yes
Format settings, ReFrames: 8 frames
Muxing mode: Container profile=Unknown@4.1
Codec ID: V_MPEG4/ISO/AVC
Duration: 2h 36mn
Bit rate: 6 199 Kbps
Nominal bit rate: 6 354 Kbps
Width: 1 280 pixels
Height: 720 pixels
Display aspect ratio: 16/9
Frame rate: 29.970 fps
Resolution: 24 bits
Colorimetry: 4:2:0
Scan type: Progressive
Bits/(Pixel*Frame): 0.224
Stream size: 6.76 GiB (79%)
Title: www.MySiLU.com
Writing library: x264 core 68 r1183M f21daff
Encoding settings: cabac=1 / ref=8 / deblock=1:-3:-3 / analyse=0x3:0x113 / me=umh / subme=9 / psy_rd=1.2:0.2 / mixed_ref=1 / me_range=16 / chroma_me=1 / trellis=2 / 8x8dct=1 / cqm=0 / deadzone=21,11 / chroma_qp_offset=-3 / threads=6 / nr=0 / decimate=0 / mbaff=0 / bframes=3 / b_pyramid=1 / b_adapt=2 / b_bias=0 / direct=1 / wpredb=1 / keyint=250 / keyint_min=25 / scenecut=40 / rc=2pass / bitrate=6354 / ratetol=1.0 / qcomp=0.60 / qpmin=10 / qpmax=51 / qpstep=4 / cplxblur=20.0 / qblur=0.5 / vbv_maxrate=50000 / vbv_bufsize=50000 / ip_ratio=1.40 / pb_ratio=1.30 / aq=1:1.00
Language: English
Audio
ID: 2
Format: DTS
Format/Info: Digital Theater Systems
Codec ID: A_DTS
Duration: 2h 36mn
Bit rate mode: Constant
Bit rate: 1 510 Kbps
Channel(s): 6 channels
Channel positions: Front: L C R, Surround: L R, LFE
Sampling rate: 48.0 KHz
Resolution: 16 bits
Stream size: 1.65 GiB (19%)
Title: DTScore 1536 Kbps
Language: English

Скриншоты видео
2008 Quincy Jones - 75th Birthday Celebration - Live at Montreux [BDrip 720p] 02008 Quincy Jones - 75th Birthday Celebration - Live at Montreux [BDrip 720p] 12008 Quincy Jones - 75th Birthday Celebration - Live at Montreux [BDrip 720p] 22008 Quincy Jones - 75th Birthday Celebration - Live at Montreux [BDrip 720p] 32008 Quincy Jones - 75th Birthday Celebration - Live at Montreux [BDrip 720p] 42008 Quincy Jones - 75th Birthday Celebration - Live at Montreux [BDrip 720p] 5
Приватный:
Нет (DHT включён)
Размер:
8.59 Гб (9,223,857,639 байт) » файлов: 2
Участники:
0 раздают, 0 качают (0 участников всего)
Внешние участники:
1 раздают, 0 качают (1 участников всего) [ Обновить ]
205
Нет комментариев. Ваш будет первым!