Поиск

2011 David Sanchez - Salle Aime Cesaire de l'Atrium Live at Martinique Jazz Festival [HDTV 1080i]

2011 David Sanchez - Salle Aime Cesaire de l'Atrium Live at Martinique Jazz Festival [HDTV 1080i]
Описание:

Треклист:
01. Cultural Survival
02. Caballo Viejo
03. City Sunrise

Продолжительность: 00:54:14
Дата записи: 3 декабря 2010
Год выпуска: 2011
Качество: HDTV
Разрешение видео/развертка: 1080i
Контейнер: TS
Видео кодек: AVC
Аудио кодек: MP2
Видео: Advanced Video Codec, 1920x1080, 13.4 Mb/s, 25 fps
Аудио: MPEG Audio Layer 2, 256 kb/s, 48.0 kHz, 2 channels

 
Отчёт MediaInfo / BDInfo
General
ID                          : 1 (0x1)
Complete name               : \\NASF8F4EB\Videos\HD Video\David Sanchez\2011 David Sanchez - Live at Martinique Jazz Fest.ts
Format                      : MPEG-TS
File size                   : 5.43 GiB
Duration                    : 54 min 14 s
Overall bit rate mode       : Variable
Overall bit rate            : 14.3 Mb/s
Video
ID                          : 323 (0x143)
Menu ID                     : 14103 (0x3717)
Format                      : AVC
Format/Info                 : Advanced Video Codec
Format profile              : Main@L4
Format settings             : CABAC / 3 Ref Frames
Format settings, CABAC      : Yes
Format settings, ReFrames   : 3 frames
Codec ID                    : 27
Duration                    : 54 min 14 s
Bit rate                    : 13.4 Mb/s
Width                       : 1 920 pixels
Height                      : 1 080 pixels
Display aspect ratio        : 16:9
Frame rate                  : 25.000 FPS
Standard                    : Component
Color space                 : YUV
Chroma subsampling          : 4:2:0
Bit depth                   : 8 bits
Scan type                   : Interlaced
Scan type, store method     : Separated fields
Scan order                  : Top Field First
Bits/(Pixel*Frame)          : 0.258
Stream size                 : 5.06 GiB (93%)
Color range                 : Limited
Color primaries             : BT.709
Transfer characteristics    : BT.709
Matrix coefficients         : BT.709
Audio
ID                          : 403 (0x193)
Menu ID                     : 14103 (0x3717)
Format                      : MPEG Audio
Format version              : Version 1
Format profile              : Layer 2
Codec ID                    : 3
Duration                    : 54 min 14 s
Bit rate mode               : Constant
Bit rate                    : 256 kb/s
Channel(s)                  : 2 channels
Sampling rate               : 48.0 kHz
Frame rate                  : 41.667 FPS (1152 SPF)
Compression mode            : Lossy
Delay relative to video     : -40 ms
Stream size                 : 99.3 MiB (2%)
Language                    : French
 
Скриншоты

David Sanchez - Salle Aime Cesaire de l'Atrium Live at Martinique Jazz FestivalDavid Sanchez - Salle Aime Cesaire de l'Atrium Live at Martinique Jazz FestivalDavid Sanchez - Salle Aime Cesaire de l'Atrium Live at Martinique Jazz FestivalDavid Sanchez - Salle Aime Cesaire de l'Atrium Live at Martinique Jazz FestivalDavid Sanchez - Salle Aime Cesaire de l'Atrium Live at Martinique Jazz FestivalDavid Sanchez - Salle Aime Cesaire de l'Atrium Live at Martinique Jazz FestivalDavid Sanchez - Salle Aime Cesaire de l'Atrium Live at Martinique Jazz FestivalDavid Sanchez - Salle Aime Cesaire de l'Atrium Live at Martinique Jazz FestivalDavid Sanchez - Salle Aime Cesaire de l'Atrium Live at Martinique Jazz FestivalDavid Sanchez - Salle Aime Cesaire de l'Atrium Live at Martinique Jazz Festival

 

 

Приватный:
Нет (DHT включён)
Размер:
5.43 Гб (5,825,723,320 байт) » файлов: 2
Участники:
0 раздают, 0 качают (0 участников всего)
Внешние участники:
1 раздают, 0 качают (1 участников всего) [ Обновить ]
Скорость:
0/c 43.00 байт/c
169
Нет комментариев. Ваш будет первым!