Поиск

2016 Michel Portal - Minneapolis - Sons D'Hiver Festival [HDTV 1080i]

2016 Michel Portal - Minneapolis - Sons D'Hiver Festival [HDTV 1080i]
Дата проведения концерта (записи):
19 февраля 2016
Место проведения:
Maison des Arts de Creteil
Время звучания:
00:52:03
Главы (разбивка по трекам):
нет
Качество:
HDTV
Разрешение видео/развёртка:
1080i
Контейнер:
MP4
Видео кодек:
H.264
Аудио кодек:
AAC
Видео:
AVC,1920*1080i (16:9), 4125kbps, 25fps
Аудио:
AAC LC, 256kbps, Constant, 48kHz, 2ch stereo
Состав:
  • Michael Portal - saxophones, bass clarinette
  • Tony Hymas - keyboards
  • Vernon Reid - guitar
  • Sonny Thompson - bass guitar
  • Stokley Williams - drums
Треклист:
  1. Domimonk
  2. Sky Tinted Water
  3. Matourmatourmatourmalet
  4. Volunteered Slavery
  5. Shopping for Black Shirts
  6. Judy Garland
Дополнительная информация:
 
Скриншоты видео

Отчёт DVDInfo/MediaInfo/BDInfo
Общее
Полное имя : \\2016 Michel Portal - Minneapolis - Sons D'Hiver Festival [HDTV 1080i].mp4
Формат : MPEG-4
Профиль формата : Base Media
Идентификатор кодека : isom (isom/iso2/avc1/mp41)
Размер файла : 1,60 Гбайт
Продолжительность : 52 м. 3 с.
Режим общего битрейта : Переменный
Общий поток : 4393 Кбит/сек
Программа кодирования : VideoReDo (Lavf57.71.100)

Видео
Идентификатор : 1
Формат : AVC
Формат/Информация : Advanced Video Codec
Профиль формата : High@L4
Настройки формата : CABAC / 4 Ref Frames
Параметр CABAC формата : Да
Параметр RefFrames формата : 4 кадра
Параметр GOP формата : M=4, N=28
Идентификатор кодека : avc1
Идентификатор кодека/Информация : Advanced Video Coding
Продолжительность : 52 м. 3 с.
Битрейт : 4125 Кбит/сек
Ширина : 1920 пикселей
Высота : 1080 пикселей
Соотношение сторон : 16:9
Режим частоты кадров : Постоянный
Частота кадров : 25,000 кадров/сек
Стандарт вещания : Component
Цветовое пространство : YUV
Субдискретизация насыщенности : 4:2:0
Битовая глубина : 8 бит
Тип развёртки : Чересстрочная
Метод сохранения типа развёртки : Раздельные поля
Порядок развёртки : Верхнее поле первое
Бит/(Пиксели*Кадры) : 0.080
Размер потока : 1,50 Гбайт (94%)
Цветовой диапазон : Limited
Основные цвета : BT.709
Характеристики трансфера : BT.709
Коэффициенты матрицы : BT.709
Menus : 3
Codec configuration box : avcC

Аудио
Идентификатор : 2
Формат : AAC LC
Формат/Информация : Advanced Audio Codec Low Complexity
Идентификатор кодека : mp4a-40-2
Продолжительность : 52 м. 3 с.
Duration_LastFrame : -21 мс.
Вид битрейта : Переменный
Битрейт : 253 Кбит/сек
Максимальный битрейт : 256 Кбит/сек
Каналы : 2 канала
ChannelLayout : L R
Частота : 48,0 КГц
Частота кадров : 46,875 кадров/сек (1024 SPF)
Метод сжатия : С потерями
Размер потока : 94,4 Мбайт (6%)
Язык : Russian
Default : Да
AlternateGroup/String : 1
Menus : 3

Меню #1
Идентификатор : 3
Идентификатор кодека : txet
Продолжительность : 52 м. 3 с.
Язык : English
Menu For : 1,2
Duration_LastFrame : -176400

Меню #2
00:00:00.000 : Chapter 1
00:05:00.000 : Chapter 2
00:10:00.000 : Chapter 3
00:15:00.000 : Chapter 4
00:20:00.000 : Chapter 5
00:25:00.000 : Chapter 6
00:30:00.000 : Chapter 7
00:35:00.000 : Chapter 8
00:40:00.000 : Chapter 9
00:45:00.000 : Chapter 10
00:50:00.000 : Chapter 11
Приватный:
Нет (DHT включён)
Размер:
1.60 Гб (1,715,087,523 байт) » файлов: 2
Участники:
3 раздают, 1 качают (4 участников всего)
Внешние участники:
--- [ Обновить ]
No seeders - write a personal message to user M0p94ok. Нет сидеров - пишите личное сообщение пользователю M0p94ok.
289
Нет комментариев. Ваш будет первым!