Поиск

2019 Tony Allen - The Source at Jazz a la Villette [HDTV 1080i]

2019 Tony Allen - The Source at Jazz a la Villette [HDTV 1080i]
Стили:
Дата проведения концерта (записи):
31 августа 2019
Место проведения:
La Grande Halle de la Villette, Paris
Время звучания:
00:49:25
Главы (разбивка по трекам):
нет
Качество:
HDTV
Разрешение видео/развёртка:
1080i
Контейнер:
MP4
Видео кодек:
H.264
Аудио кодек:
AAC
Видео:
AVC,1920*1080i (16:9), 3797kbps, 25fps
Аудио:
AAC LC, 256kbps, Constant, 48kHz, 2ch stereo
Состав:
  • Tony Allen - drums
  • Mathias Allamane - double bass
  • Indy Dibongue - guitar
  • Jean-Phi Dary - piano, keyboards
  • Nicolas Giraud - trumpet
  • Yann Jankielewicz - tenor saxophone
Треклист:
  1. Bad Roads
  2. Ewajo
  3. On Fire
  4. Wolf Eat Wolf
  5. Push And Pull
  6. Crusing
  7. Cool Cats
Дополнительная информация:
 
Скриншоты видео

Отчёт DVDInfo/MediaInfo/BDInfo
Общее
Полное имя : \\2019 Tony Allen - The Source at Jazz a la Villette [HDTV 1080i].mp4
Формат : MPEG-4
Профиль формата : Base Media
Идентификатор кодека : isom (isom/iso2/avc1/mp41)
Размер файла : 1,40 Гбайт
Продолжительность : 49 м. 25 с.
Режим общего битрейта : Переменный
Общий поток : 4064 Кбит/сек
Программа кодирования : VideoReDo (Lavf57.71.100)

Видео
Идентификатор : 1
Формат : AVC
Формат/Информация : Advanced Video Codec
Профиль формата : High@L4
Настройки формата : CABAC / 4 Ref Frames
Параметр CABAC формата : Да
Параметр RefFrames формата : 4 кадра
Параметр GOP формата : M=4, N=28
Идентификатор кодека : avc1
Идентификатор кодека/Информация : Advanced Video Coding
Продолжительность : 49 м. 25 с.
Битрейт : 3797 Кбит/сек
Ширина : 1920 пикселей
Высота : 1080 пикселей
Соотношение сторон : 16:9
Режим частоты кадров : Постоянный
Частота кадров : 50,000 кадров/сек
Частота кадров в оригинале : 25,000 кадров/сек
Стандарт вещания : Component
Цветовое пространство : YUV
Субдискретизация насыщенности : 4:2:0
Битовая глубина : 8 бит
Тип развёртки : Чересстрочная
Метод сохранения типа развёртки : Раздельные поля
Порядок развёртки : Верхнее поле первое
Бит/(Пиксели*Кадры) : 0.037
Размер потока : 1,31 Гбайт (93%)
Цветовой диапазон : Limited
Основные цвета : BT.709
Характеристики трансфера : BT.709
Коэффициенты матрицы : BT.709
Codec configuration box : avcC

Аудио
Идентификатор : 2
Формат : AAC LC
Формат/Информация : Advanced Audio Codec Low Complexity
Идентификатор кодека : mp4a-40-2
Продолжительность : 49 м. 25 с.
Duration_LastFrame : -21 мс.
Вид битрейта : Переменный
Битрейт : 253 Кбит/сек
Максимальный битрейт : 256 Кбит/сек
Каналы : 2 канала
ChannelLayout : L R
Частота : 48,0 КГц
Частота кадров : 46,875 кадров/сек (1024 SPF)
Метод сжатия : С потерями
Размер потока : 89,6 Мбайт (6%)
Язык : Russian
Default : Да
AlternateGroup/String : 1
Приватный:
Нет (DHT включён)
Размер:
1.40 Гб (1,506,291,925 байт) » файлов: 2
Участники:
0 раздают, 14 качают (14 участников всего)
Внешние участники:
--- [ Обновить ]
No seeders - write a personal message to user M0p94ok. Нет сидеров - пишите личное сообщение пользователю M0p94ok.
387
Нет комментариев. Ваш будет первым!