Поиск

2019 Sophie Alour - Exils - Jazz Sous Les Pommiers [HDTV 1080i]

2019 Sophie Alour - Exils - Jazz Sous Les Pommiers [HDTV 1080i]
Дата проведения концерта (записи):
30 мая 2019
Место проведения:
Jazz Sous Les Pommiers
Время звучания:
01:01:52
Главы (разбивка по трекам):
нет
Качество:
HDTV
Разрешение видео/развёртка:
1080i
Контейнер:
MP4
Видео кодек:
H.264
Аудио кодек:
AAC
Видео:
AVC,1920*1080i (16:9), 3344kbps, 25fps
Аудио:
AAC LC, 256kbps, Constant, 48kHz, 2ch stereo
Состав:
  • Sophie Alour - saxophone, flute
  • Mohamed Abozekry - oud & vocals
  • Donald Kontamanou - drums
  • Philippe Aerts - bass
  • Damien Argentieri - piano
  • Wassim Halal - derbouka & bendir
Треклист:
  1. Exil
  2. La Chausee Des Geants
  3. Songe En Forme De Palmier
  4. Un Ciel Plus Grand
  5. Les Heures Paresseuses
  6. Joy
  7. Sous Les Toits Du Monde
Дополнительная информация:
 
Скриншоты видео

Отчёт DVDInfo/MediaInfo/BDInfo
Общее
Полное имя : \\Nasf8f4eb\6\Videos\HD\S\Sophie Alour\2019 Sophie Alour - Exils - Jazz Sous Les Pommiers [HDTV 1080i].mp4
Формат : MPEG-4
Профиль формата : Base Media
Идентификатор кодека : isom (isom/iso2/avc1/mp41)
Размер файла : 1,56 Гбайт
Продолжительность : 1 ч. 1 м.
Режим общего битрейта : Переменный
Общий поток : 3612 Кбит/сек
Программа кодирования : VideoReDo (Lavf57.71.100)

Видео
Идентификатор : 1
Формат : AVC
Формат/Информация : Advanced Video Codec
Профиль формата : High@L4
Настройки формата : CABAC / 4 Ref Frames
Параметр CABAC формата : Да
Параметр RefFrames формата : 4 кадра
Параметр GOP формата : M=4, N=28
Идентификатор кодека : avc1
Идентификатор кодека/Информация : Advanced Video Coding
Продолжительность : 1 ч. 1 м.
Битрейт : 3344 Кбит/сек
Ширина : 1920 пикселей
Высота : 1080 пикселей
Соотношение сторон : 16:9
Режим частоты кадров : Постоянный
Частота кадров : 50,000 кадров/сек
Частота кадров в оригинале : 25,000 кадров/сек
Стандарт вещания : Component
Цветовое пространство : YUV
Субдискретизация насыщенности : 4:2:0
Битовая глубина : 8 бит
Тип развёртки : Чересстрочная
Метод сохранения типа развёртки : Раздельные поля
Порядок развёртки : Верхнее поле первое
Бит/(Пиксели*Кадры) : 0.032
Размер потока : 1,45 Гбайт (93%)
Цветовой диапазон : Limited
Основные цвета : BT.709
Характеристики трансфера : BT.709
Коэффициенты матрицы : BT.709
Codec configuration box : avcC

Аудио
Идентификатор : 2
Формат : AAC LC
Формат/Информация : Advanced Audio Codec Low Complexity
Идентификатор кодека : mp4a-40-2
Продолжительность : 1 ч. 1 м.
Duration_LastFrame : -21 мс.
Вид битрейта : Переменный
Битрейт : 253 Кбит/сек
Максимальный битрейт : 256 Кбит/сек
Каналы : 2 канала
ChannelLayout : L R
Частота : 48,0 КГц
Частота кадров : 46,875 кадров/сек (1024 SPF)
Метод сжатия : С потерями
Размер потока : 112 Мбайт (7%)
Язык : Russian
Default : Да
AlternateGroup/String : 1
Приватный:
Нет (DHT включён)
Размер:
1.56 Гб (1,675,901,231 байт) » файлов: 2
Участники:
0 раздают, 0 качают (0 участников всего)
Внешние участники:
--- [ Обновить ]
No seeders - write a personal message to user M0p94ok. Нет сидеров - пишите личное сообщение пользователю M0p94ok.
384
Нет комментариев. Ваш будет первым!