Поиск

2019 Enrico Rava - 80th Birthday Tour at Like A Jazz Machine Fest [HDTV 1080i]

2019 Enrico Rava - 80th Birthday Tour at Like A Jazz Machine Fest [HDTV 1080i]
Дата проведения концерта (записи):
16 мая 2019
Место проведения:
Grand Auditoire, Dudelange, Luxembourg
Время звучания:
01:00:24
Главы (разбивка по трекам):
нет
Качество:
HDTV
Разрешение видео/развёртка:
1080i
Контейнер:
MP4
Видео кодек:
H.264
Аудио кодек:
AAC
Видео:
AVC,1920*1080i (16:9), 4014kbps, 25fps
Аудио:
AAC LC, 256kbps, 48kHz, 2ch
Состав:
  • Enrico Rava - trumpet & bugle
  • Gianluca Petrella - trombone
  • Francesco Diodati - guitar
  • Giovanni Guidi - piano
  • Gabriele Evangelista - bass guitar
  • Enrico Morello - drums
Треклист:
  1. INTERIORS (Enrico Rava) 
  2. INFANT (Enrico Rava)
  3. THEME FOR JESSICA (Enrico Rava) 
  4. WILD DANCE (Enrico Rava) 
  5. ART DECO (Don Cherry)
  6. BALLERINA (Enrico Rava) 
  7. TRIBE (Enrico Rava)
  8. QUIZAS QUIZAS QUIZAS (Enrico Rava)
Описание:

Знаменитый трубач Энрико Рава впервые появился на итальянских и международных джазовых сценах более 50 лет назад, работая с Гато Барбьери и Стивом Лейси, Розуэллом Раддом, Карлой Блей, Джоном Аберкромби и Сесилом Тейлором. На протяжении всей своей обширной карьеры он играл вместе с такими известными музыкантами, как Ли Конитц, Ричард Гальяно, Пэт Метени, Джон Скофилд, Дэйв Дуглас, Джери Аллен, Мирослав Витоус, Филипп Катерин, Томаш Станко, Мишель Петруччиани, Джон Аберкромби, Джо Ловано. Рава также много работал с молодыми музыкантами.

Джованни Гуиди — уважаемый пианист среди молодого итальянского поколения джазовых музыкантов. Он выиграл Top Jazz 2007 как лучший новый национальный талант.

Джанлука Петрелла считается одним из самых значительных джазовых тромбонистов в мире.

Габриэле Эванджелиста — признанный итальянский басист, обладающий необычайно точными навыками в сочетании с диким творчеством и отличительным взаимодействием.

Энрико Морелло появился из сильного академического образования, широко известного своим утонченным стилем игры на барабанах и замечательным свингом.

Записано 16 мая 2019 года в Большой Аудитории, Дюделанж, Люксембург. Режиссёр Сэмюэль Тибо

Дополнительная информация:
 
Скриншоты видео

Отчёт DVDInfo/MediaInfo/BDInfo
Общее
Полное имя : \\2019 Enrico Rava - 80th Birthday Tour at Like A Jazz Machine Fest [HDTV 1080i].mp4
Формат : MPEG-4
Профиль формата : Base Media
Идентификатор кодека : isom (isom/iso2/avc1/mp41)
Размер файла : 1,81 Гбайт
Продолжительность : 1 ч. 0 м.
Режим общего битрейта : Переменный
Общий поток : 4282 Кбит/сек
Программа кодирования : VideoReDo (Lavf57.71.100)

Видео
Идентификатор : 1
Формат : AVC
Формат/Информация : Advanced Video Codec
Профиль формата : High@L4
Настройки формата : CABAC / 4 Ref Frames
Параметр CABAC формата : Да
Параметр RefFrames формата : 4 кадра
Идентификатор кодека : avc1
Идентификатор кодека/Информация : Advanced Video Coding
Продолжительность : 1 ч. 0 м.
Битрейт : 4014 Кбит/сек
Ширина : 1920 пикселей
Высота : 1080 пикселей
Соотношение сторон : 16:9
Режим частоты кадров : Постоянный
Частота кадров : 50,000 кадров/сек
Частота кадров в оригинале : 25,000 кадров/сек
Стандарт вещания : Component
Цветовое пространство : YUV
Субдискретизация насыщенности : 4:2:0
Битовая глубина : 8 бит
Тип развёртки : Чересстрочная
Метод сохранения типа развёртки : Раздельные поля
Порядок развёртки : Верхнее поле первое
Бит/(Пиксели*Кадры) : 0.039
Размер потока : 1,69 Гбайт (94%)
Цветовой диапазон : Limited
Основные цвета : BT.709
Характеристики трансфера : BT.709
Коэффициенты матрицы : BT.709
Codec configuration box : avcC

Аудио
Идентификатор : 2
Формат : AAC LC
Формат/Информация : Advanced Audio Codec Low Complexity
Идентификатор кодека : mp4a-40-2
Продолжительность : 1 ч. 0 м.
Duration_LastFrame : -21 мс.
Вид битрейта : Переменный
Битрейт : 253 Кбит/сек
Максимальный битрейт : 256 Кбит/сек
Каналы : 2 канала
ChannelLayout : L R
Частота : 48,0 КГц
Частота кадров : 46,875 кадров/сек (1024 SPF)
Метод сжатия : С потерями
Размер потока : 110 Мбайт (6%)
Язык : Russian
Default : Да
AlternateGroup/String : 1
Приватный:
Нет (DHT включён)
Размер:
1.81 Гб (1,940,031,171 байт) » файлов: 2
Участники:
18 раздают, 0 качают (18 участников всего)
Внешние участники:
--- [ Обновить ]
No seeders - write a personal message to user M0p94ok. Нет сидеров - пишите личное сообщение пользователю M0p94ok.
228
Нет комментариев. Ваш будет первым!