Поиск

2019 Airelle Besson Quartet - Radio One_ Week-end Jazz en VF [HDTV 1080i]

2019 Airelle Besson Quartet - Radio One_ Week-end Jazz en VF [HDTV 1080i]
Стили:
Состав:
  • Airelle Besson, trompette / trumpet
  • Isabel Sôrling, voix / voice
  • Benjamin Moussay, piano, Fender Rhodes
  • Fabien Moreau, batterie / drums
Дата проведения концерта (записи):
16 июня 2019
Время звучания:
00:44:24
Главы (разбивка по трекам):
нет
Видео:
AVC,1920*1080i (16:9), 3597kbps, 25fps
Аудио#1:
AAC LC, 256kbps, 48kHz, 2ch
Дополнительная информация:
 
Скриншоты
Отчёт DVDInfo/MediaInfo/BDInfo
Общее
Полное имя : \\Nasf8f4eb\6\Videos\HD\A\Airelle Besson\2019 Airelle Besson Quartet - Radio One_ Week-end Jazz en VF [HDTV 1080i].mp4
Формат : MPEG-4
Профиль формата : Base Media
Идентификатор кодека : isom (isom/iso2/avc1/mp41)
Размер файла : 1,20 Гбайт
Продолжительность : 44 м. 24 с.
Режим общего битрейта : Переменный
Общий поток : 3864 Кбит/сек
Программа кодирования : VideoReDo (Lavf57.71.100)

Видео
Идентификатор : 1
Формат : AVC
Формат/Информация : Advanced Video Codec
Профиль формата : High@L4
Настройки формата : CABAC / 4 Ref Frames
Параметр CABAC формата : Да
Параметр RefFrames формата : 4 кадра
Параметр GOP формата : M=4, N=28
Идентификатор кодека : avc1
Идентификатор кодека/Информация : Advanced Video Coding
Продолжительность : 44 м. 24 с.
Битрейт : 3597 Кбит/сек
Ширина : 1920 пикселей
Высота : 1080 пикселей
Соотношение сторон : 16:9
Режим частоты кадров : Постоянный
Частота кадров : 50,000 кадров/сек
Частота кадров в оригинале : 25,000 кадров/сек
Стандарт вещания : Component
Цветовое пространство : YUV
Субдискретизация насыщенности : 4:2:0
Битовая глубина : 8 бит
Тип развёртки : Чересстрочная
Метод сохранения типа развёртки : Раздельные поля
Порядок развёртки : Верхнее поле первое
Бит/(Пиксели*Кадры) : 0.035
Размер потока : 1,12 Гбайт (93%)
Цветовой диапазон : Limited
Основные цвета : BT.709
Характеристики трансфера : BT.709
Коэффициенты матрицы : BT.709
Menus : 3
Codec configuration box : avcC

Аудио
Идентификатор : 2
Формат : AAC LC
Формат/Информация : Advanced Audio Codec Low Complexity
Идентификатор кодека : mp4a-40-2
Продолжительность : 44 м. 24 с.
Duration_LastFrame : -21 мс.
Вид битрейта : Переменный
Битрейт : 253 Кбит/сек
Максимальный битрейт : 256 Кбит/сек
Каналы : 2 канала
ChannelLayout : L R
Частота : 48,0 КГц
Частота кадров : 46,875 кадров/сек (1024 SPF)
Метод сжатия : С потерями
Размер потока : 80,5 Мбайт (7%)
Язык : Russian
Default : Да
AlternateGroup/String : 1
Menus : 3

Меню #1
Идентификатор : 3
Идентификатор кодека : txet
Продолжительность : 44 м. 24 с.
Язык : English
Menu For : 1,2

Меню #2
00:00:00.000 : Chapter 1
No seeders - write a personal message to M0p94ok. Any questions - support@pro-jazz.com.
Нет сидеров - пишите в личку M0p94ok. Есть вопросы - support@pro-jazz.com
234
Нет комментариев. Ваш будет первым!