Вы используете незарегистрированную версию компонента "Вкладки"!

Поиск

2016 John Scofield - Country For Old Men at D'Jazz Nevers Fest [HDTV 1080i]

2016 John Scofield - Country For Old Men at D'Jazz Nevers Fest [HDTV 1080i]
Дата проведения концерта (записи):
14 ноября 2016
Место проведения:
D'Jazz Nevers Festival
Время звучания:
01:00:27
Главы (разбивка по трекам):
нет
Состав:
  • John Scofield - guitar, ukulele (12)
  • Larry Goldings - piano, Hammond organ
  • Steve Swallow - bass
  • Bill Stewart - drums
Видео:
AVC,1920*1080i (16:9), 3939kbps, 25fps
Аудио#1:
MPEG2, 256kbps, 48kHz, 2ch
Описание:

Прославленный джазовый гитарист Джон Скофилд выступил с программой альбома "Старикам здесь самое место", выпущенного 23 сентября 2016 джазовым лейблом Impulse! – 570 881-0.  Альбом выиграл премию Грэмми в номинации "Лучший джазовый инструментальный альбом" (Best Jazz Instrumental Album). На альбоме представлены джазовые версии песен в стиле кантри. Название было заимствовано из романа Кормака Маккарти "No Country for Old Men (2005) "Старикам здесь не место", по мотивам которого был снят одноимённый фильм 2007 года. Название альбома — шутливый намёк на возраст Джона Скофилда (к моменту выхода альбома ему исполнилось 64 года, а его давнему другу басисту Стиву Своллоу 76)

Отчёт DVDInfo/MediaInfo/BDInfo
Общее
Полное имя :2016 John Scofield - Country For Old Men at Jazz Nevers [HDTV 1080i].mp4
Формат : MPEG-4
Профиль формата : Base Media
Идентификатор кодека : isom (isom/iso2/avc1/mp41)
Размер файла : 1,78 Гбайт
Продолжительность : 1 ч. 0 м.
Режим общего битрейта : Переменный
Общий поток : 4206 Кбит/сек
Программа кодирования : VideoReDo (Lavf57.71.100)

Видео
Идентификатор : 1
Формат : AVC
Формат/Информация : Advanced Video Codec
Профиль формата : High@L4
Настройки формата : CABAC / 4 Ref Frames
Параметр CABAC формата : Да
Параметр RefFrames формата : 4 кадра
Параметр GOP формата : M=4, N=28
Идентификатор кодека : avc1
Идентификатор кодека/Информация : Advanced Video Coding
Продолжительность : 1 ч. 0 м.
Битрейт : 3939 Кбит/сек
Ширина : 1920 пикселей
Высота : 1080 пикселей
Соотношение сторон : 16:9
Режим частоты кадров : Постоянный
Частота кадров : 50,000 кадров/сек
Частота кадров в оригинале : 25,000 кадров/сек
Стандарт вещания : Component
Цветовое пространство : YUV
Субдискретизация насыщенности : 4:2:0
Битовая глубина : 8 бит
Тип развёртки : Чересстрочная
Метод сохранения типа развёртки : Раздельные поля
Порядок развёртки : Верхнее поле первое
Бит/(Пиксели*Кадры) : 0.038
Размер потока : 1,66 Гбайт (94%)
Цветовой диапазон : Limited
Основные цвета : BT.709
Характеристики трансфера : BT.709
Коэффициенты матрицы : BT.709
Codec configuration box : avcC

Аудио
Идентификатор : 2
Формат : AAC LC
Формат/Информация : Advanced Audio Codec Low Complexity
Идентификатор кодека : mp4a-40-2
Продолжительность : 1 ч. 0 м.
Duration_LastFrame : -21 мс.
Вид битрейта : Переменный
Битрейт : 253 Кбит/сек
Максимальный битрейт : 256 Кбит/сек
Каналы : 2 канала
ChannelLayout : L R
Частота : 48,0 КГц
Частота кадров : 46,875 кадров/сек (1024 SPF)
Метод сжатия : С потерями
Размер потока : 110 Мбайт (6%)
Язык : Russian
Default : Да
AlternateGroup/String : 1
Any questions - support@pro-jazz.com. Есть вопросы - support@pro-jazz.com
314
Нет комментариев. Ваш будет первым!