Вы используете незарегистрированную версию компонента "Вкладки"!

Поиск

1958 Lionel Hampton - Jazz At The Opera [SD]

1958 Lionel Hampton - Jazz At The Opera [SD]
Дата проведения концерта (записи):
1958
Место проведения:
Hot Club de Belgique, The Opera RTBF, Belgium
Время звучания:
00:58:01
Главы (разбивка по трекам):
нет
Качество:
BDRip
Контейнер:
BDAV
Состав:
  • Lionel Hampton - Vibes, Drum, Piano....
  • Leon Zachery & Bobby Plater - Alto Sax....
  • Andy McGhee - Tenor Sax....
  • Lonnie Shaw - Baritone Sax....
  • Bobby Plater - Clarinet....
  • Louis Blackburn, Wade Marcus and Larry Wilson - Trombone....
  • Eddie Williams, Art Hoyle, Eddie Mullens, Dave Gonzales - Trumpet....
  • Oscar Denard - Piano....
  • Billy Mackel - Guitar, Vocals....
  • Julius Browne - Bass....
  • Wilbert Hogan - Drums....
  • Cornelius Pinocchio James - Vocal....
Видео:
AVC,704*576i (16:9), 1258kbps, 25fps
Аудио#1:
AAC LC, 256kbps, 48kHz, 2ch
Источник:
собственная запись
Отчёт DVDInfo/MediaInfo/BDInfo
Общее
Полное имя : \\1958 Lionel Hampton - Jazz At The Opera [SD].mp4
Формат : MPEG-4
Профиль формата : Base Media
Идентификатор кодека : isom (isom/iso2/avc1/mp41)
Размер файла : 633 Мбайт
Продолжительность : 58 м. 1 с.
Режим общего битрейта : Переменный
Общий поток : 1525 Кбит/сек
Программа кодирования : VideoReDo (Lavf57.71.100)

Видео
Идентификатор : 1
Формат : AVC
Формат/Информация : Advanced Video Codec
Профиль формата : High@L3
Настройки формата : CABAC / 4 Ref Frames
Параметр CABAC формата : Да
Параметр RefFrames формата : 4 кадра
Идентификатор кодека : avc1
Идентификатор кодека/Информация : Advanced Video Coding
Продолжительность : 58 м. 1 с.
Битрейт : 1258 Кбит/сек
Ширина : 704 пикселя
Высота : 576 пикселей
Соотношение сторон : 16:9
Режим частоты кадров : Постоянный
Частота кадров : 50,000 кадров/сек
Частота кадров в оригинале : 25,000 кадров/сек
Стандарт вещания : Component
Цветовое пространство : YUV
Субдискретизация насыщенности : 4:2:0
Битовая глубина : 8 бит
Тип развёртки : Чересстрочная
Метод сохранения типа развёртки : Раздельные поля
Порядок развёртки : Верхнее поле первое
Бит/(Пиксели*Кадры) : 0.062
Размер потока : 522 Мбайт (82%)
Цветовой диапазон : Limited
Основные цвета : BT.601 PAL
Характеристики трансфера : BT.470 System B/G
Коэффициенты матрицы : BT.470 System B/G
Codec configuration box : avcC

Аудио
Идентификатор : 2
Формат : AAC LC
Формат/Информация : Advanced Audio Codec Low Complexity
Идентификатор кодека : mp4a-40-2
Продолжительность : 58 м. 1 с.
Duration_LastFrame : -21 мс.
Вид битрейта : Переменный
Битрейт : 253 Кбит/сек
Максимальный битрейт : 256 Кбит/сек
Каналы : 2 канала
ChannelLayout : L R
Частота : 48,0 КГц
Частота кадров : 46,875 кадров/сек (1024 SPF)
Метод сжатия : С потерями
Размер потока : 105 Мбайт (17%)
Язык : French
Default : Да
AlternateGroup/String : 1
Any questions - support@pro-jazz.com. Есть вопросы - support@pro-jazz.com
434
Нет комментариев. Ваш будет первым!