Вы используете незарегистрированную версию компонента "Вкладки"!

Поиск

2016 Marc Ducret Solo & Samuel Blaser Trio - Sarajevo Jazz Fest [HDTV 1080p]

2016 Marc Ducret Solo & Samuel Blaser Trio - Sarajevo Jazz Fest [HDTV 1080p]
Время звучания:
00:58:40
Главы (разбивка по трекам):
нет
Состав:
  • Marc Ducret - guitar
  • Samuel Blaser - trombone
  • Peter Brunn - drums
Видео:
AVC,1920*1080p (16:9), 3479kbps, 25fps
Аудио#1:
AAC LC, 256kbps, 48kHz, 2ch
Отчёт DVDInfo/MediaInfo/BDInfo
Общее
Полное имя : \\2016 Marc Ducret Solo & Samuel Blaser Trio - Sarajevo Jazz Fest [HDTV 1080p].mp4
Формат : MPEG-4
Профиль формата : Base Media
Идентификатор кодека : isom (isom/iso2/avc1/mp41)
Размер файла : 1,53 Гбайт
Продолжительность : 58 м. 40 с.
Общий поток : 3739 Кбит/сек
Программа кодирования : VideoReDo (Lavf57.71.100)

Видео
Идентификатор : 1
Формат : AVC
Формат/Информация : Advanced Video Codec
Профиль формата : High@L4.1
Настройки формата : CABAC / 4 Ref Frames
Параметр CABAC формата : Да
Параметр RefFrames формата : 4 кадра
Идентификатор кодека : avc1
Идентификатор кодека/Информация : Advanced Video Coding
Продолжительность : 58 м. 40 с.
Битрейт : 3479 Кбит/сек
Ширина : 1920 пикселей
Высота : 1080 пикселей
Соотношение сторон : 16:9
Режим частоты кадров : Постоянный
Частота кадров : 25,000 кадров/сек
Цветовое пространство : YUV
Субдискретизация насыщенности : 4:2:0
Битовая глубина : 8 бит
Тип развёртки : Прогрессивная
Бит/(Пиксели*Кадры) : 0.067
Размер потока : 1,43 Гбайт (93%)
Цветовой диапазон : Limited
Основные цвета : BT.709
Характеристики трансфера : BT.709
Коэффициенты матрицы : BT.709
Codec configuration box : avcC

Аудио
Идентификатор : 2
Формат : AAC LC
Формат/Информация : Advanced Audio Codec Low Complexity
Идентификатор кодека : mp4a-40-2
Продолжительность : 58 м. 40 с.
Duration_LastFrame : -21 мс.
Вид битрейта : Постоянный
Битрейт : 253 Кбит/сек
Каналы : 2 канала
ChannelLayout : L R
Частота : 48,0 КГц
Частота кадров : 46,875 кадров/сек (1024 SPF)
Метод сжатия : С потерями
Размер потока : 106 Мбайт (7%)
Язык : English
Default : Да
AlternateGroup/String : 1
Any questions - support@pro-jazz.com. Есть вопросы - support@pro-jazz.com
252
Нет комментариев. Ваш будет первым!