Поиск

1959 Louis Armstrong & His All Stars - Jazz Legends (2016) [SD]

1959 Louis Armstrong & His All Stars - Jazz Legends (2016) [SD]
Место проведения:
Ancienne Belgique, Antwerp
Время звучания:
00:52:00
Главы (разбивка по трекам):
нет
Качество:
SATRip
Контейнер:
MP4
Видео кодек:
H.264
Аудио кодек:
AAC
Видео:
AVC, 720*576p, (16x9), 1308kbps, 25fps
Аудио:
AAC LC, 256kbps, 48kHz, 2ch
Источник:
собственная запись
Состав:
  • Louis Armstrong - trumpet / vocals
  • Billy Kyle - piano
  • Mort Herbert - bass
  • Danny Barcelona - drums
  • Trummy Young - trombone
  • "Peanuts" Hucko - clarinet
  • Velma Middleton - vocals
Треклист:

01. When It's Sleepy Time Down South
02. Back Home Again In Indiana
03. Basin Street Blues
04. Tiger Rag / Now You Has Jazz
05. Love Is Just Around The Corner
06. C'est Si Bon
07. Mack The Knife
08. Stomping At Savoy
09. St-Louis Blues
10. Ko-Ko-Mo (I Love You So)
11. When The Saints
12. La Vie En Rose
13. Talk To Me Baby

Отчёт DVDInfo/MediaInfo/BDInfo
Общее
Полное имя : \\1959 Louis Armstrong & His All Stars - Jazz Legends (2016) [SD].mp4
Формат : MPEG-4
Профиль формата : Base Media
Идентификатор кодека : isom (isom/iso2/avc1/mp41)
Размер файла : 587 Мбайт
Продолжительность : 52 м. 0 с.
Общий поток : 1577 Кбит/сек
Программа кодирования : VideoReDo (Lavf57.71.100)

Видео
Идентификатор : 1
Формат : AVC
Формат/Информация : Advanced Video Codec
Профиль формата : High@L3
Настройки формата : CABAC / 4 Ref Frames
Параметр CABAC формата : Да
Параметр RefFrames формата : 4 кадра
Идентификатор кодека : avc1
Идентификатор кодека/Информация : Advanced Video Coding
Продолжительность : 52 м. 0 с.
Битрейт : 1308 Кбит/сек
Ширина : 720 пикселей
Высота : 576 пикселей
Соотношение сторон : 16:9
Режим частоты кадров : Постоянный
Частота кадров : 25,000 кадров/сек
Стандарт вещания : PAL
Цветовое пространство : YUV
Субдискретизация насыщенности : 4:2:0
Битовая глубина : 8 бит
Тип развёртки : Прогрессивная
Бит/(Пиксели*Кадры) : 0.126
Размер потока : 486 Мбайт (83%)
Цветовой диапазон : Limited
Основные цвета : BT.601 PAL
Характеристики трансфера : BT.470 System B/G
Коэффициенты матрицы : BT.470 System B/G
Codec configuration box : avcC

Аудио
Идентификатор : 2
Формат : AAC LC
Формат/Информация : Advanced Audio Codec Low Complexity
Идентификатор кодека : mp4a-40-2
Продолжительность : 52 м. 0 с.
Duration_LastFrame : -21 мс.
Вид битрейта : Постоянный
Битрейт : 256 Кбит/сек
Каналы : 2 канала
ChannelLayout : L R
Частота : 48,0 КГц
Частота кадров : 46,875 кадров/сек (1024 SPF)
Метод сжатия : С потерями
Размер потока : 95,2 Мбайт (16%)
Язык : French
Default : Да
AlternateGroup/String : 1
Скриншоты видео
1959 Louis Armstrong & His All Stars - Jazz Legends (2016) [SD] 01959 Louis Armstrong & His All Stars - Jazz Legends (2016) [SD] 11959 Louis Armstrong & His All Stars - Jazz Legends (2016) [SD] 21959 Louis Armstrong & His All Stars - Jazz Legends (2016) [SD] 31959 Louis Armstrong & His All Stars - Jazz Legends (2016) [SD] 4
Приватный:
Нет (DHT включён)
Размер:
586.77 Мб (615,275,955 байт) » файлов: 2
Участники:
2 раздают, 0 качают (2 участников всего)
Внешние участники:
--- [ Обновить ]
No seeders - write a personal message to user M0p94ok. Нет сидеров - пишите личное сообщение пользователю M0p94ok.
190
Нет комментариев. Ваш будет первым!