Поиск

2013 Erik Truffaz - Being Human Being at D'Jazz Neves Festival [SD]

2013 Erik Truffaz - Being Human Being at D'Jazz Neves Festival [SD]
Дата проведения концерта (записи):
26 марта 2013
Время звучания:
01:14:52
Главы (разбивка по трекам):
нет
Качество:
BDRip
Контейнер:
BDAV
Состав:
  • Enki Bilal illustrations visuelles
  • Erik Truffaz trompette
  • Murcof électronique
  • Dominique Mahut percussions
Видео:
AVC,704*576p (16:9), 906kbps, 25fps
Аудио#1:
AAC LC, 256kbps, 48kHz, 2ch
Источник:
собственная запись
Отчёт DVDInfo/MediaInfo/BDInfo
Общее
Полное имя : \\2013 Erik Truffaz - Being Human Being at D'Jazz Neves Fest [SD]\2013 Erik Truffaz - Being Human Being at D'Jazz Neves Fest [SD].mp4
Формат : MPEG-4
Профиль формата : Base Media
Идентификатор кодека : isom (isom/iso2/avc1/mp41)
Размер файла : 624 Мбайт
Продолжительность : 1 ч. 14 м.
Режим общего битрейта : Переменный
Общий поток : 1166 Кбит/сек
Программа кодирования : VideoReDo (Lavf56.25.101)

Видео
Идентификатор : 1
Формат : AVC
Формат/Информация : Advanced Video Codec
Профиль формата : Main@L3
Настройки формата : CABAC / 3 Ref Frames
Параметр CABAC формата : Да
Параметр RefFrames формата : 3 кадра
Параметр GOP формата : M=2, N=33
Идентификатор кодека : avc1
Идентификатор кодека/Информация : Advanced Video Coding
Продолжительность : 1 ч. 14 м.
Вид битрейта : Переменный
Битрейт : 906 Кбит/сек
Максимальный битрейт : 1350 Кбит/сек
Ширина : 704 пикселя
Высота : 576 пикселей
Соотношение сторон : 16:9
Режим частоты кадров : Постоянный
Частота кадров : 25,000 кадров/сек
Стандарт вещания : PAL
Цветовое пространство : YUV
Субдискретизация насыщенности : 4:2:0
Битовая глубина : 8 бит
Тип развёртки : Прогрессивная
Бит/(Пиксели*Кадры) : 0.089
Размер потока : 485 Мбайт (78%)
Цветовой диапазон : Limited
Codec configuration box : avcC

Аудио
Идентификатор : 2
Формат : AAC LC
Формат/Информация : Advanced Audio Codec Low Complexity
Идентификатор кодека : mp4a-40-2
Продолжительность : 1 ч. 14 м.
Duration_LastFrame : -21 мс.
Вид битрейта : Переменный
Битрейт : 253 Кбит/сек
Максимальный битрейт : 256 Кбит/сек
Каналы : 2 канала
ChannelLayout : L R
Частота : 48,0 КГц
Частота кадров : 46,875 кадров/сек (1024 SPF)
Метод сжатия : С потерями
Размер потока : 136 Мбайт (22%)
Язык : French
Default : Да
AlternateGroup/String : 1
Скриншоты видео
2013 Erik Truffaz - Being Human Being at D'Jazz Neves Festival [SD] 02013 Erik Truffaz - Being Human Being at D'Jazz Neves Festival [SD] 12013 Erik Truffaz - Being Human Being at D'Jazz Neves Festival [SD] 22013 Erik Truffaz - Being Human Being at D'Jazz Neves Festival [SD] 3
По всем вопросам пишите личное сообщение пользователю M0p94ok.
671
Нет комментариев. Ваш будет первым!