Поиск

2017 Roy Hargrove Quintet - Jazz En Tete [HDTV 1080p]

2017 Roy Hargrove Quintet - Jazz En Tete [HDTV 1080p]
Дата проведения концерта (записи):
28 октября 2017
Место проведения:
La Maison de la Culture de Clermont Ferrand
Время звучания:
00:56:30
Главы (разбивка по трекам):
нет
Качество:
HDTV
Разрешение видео/развёртка:
1080p
Контейнер:
MP4
Видео кодек:
HEVC
Аудио кодек:
AC3
Видео:
AVC,1920*1080p (16:9), 4401kbps, 25fps
Аудио:
AAC, 256kbps, 48kHz, 2ch
Состав:

Roy Hargrove - Bugle, Trompette
Justin Robinson - Saxophone
Tadataka Unno - Piano
Ameen Saleem - Basse
Quincy Phillips - Batterie

Треклист:

01. Cape Town Ambush
02. Wild Is The Wind
03. From The Top Of My Head
04. Strasbourg - St Denis
05. Strength
06. Fighting For Love
07. The Theme
08. Shade Of Jade
09. Mo' Please
10. The Deep End
11. Soothe Me
12. Rock With You

Отчёт DVDInfo/MediaInfo/BDInfo
Общее
Полное имя : \\Nasf8f4eb\6\Videos\HD\R\Roy Hargrove\2017 Roy Hargrove Quintet - Live At Jazz en Tete [HDTV 1080p].mp4
Формат : MPEG-4
Профиль формата : Base Media
Идентификатор кодека : isom (isom/iso2/avc1/mp41)
Размер файла : 1,84 Гбайт
Продолжительность : 56 м. 31 с.
Общий поток : 4663 Кбит/сек
HDVideo : Yes

Видео
Идентификатор : 1
Формат : AVC
Формат/Информация : Advanced Video Codec
Профиль формата : High@L4.1
Настройки формата : CABAC / 4 Ref Frames
Параметр CABAC формата : Да
Параметр RefFrames формата : 4 кадра
Идентификатор кодека : avc1
Идентификатор кодека/Информация : Advanced Video Coding
Продолжительность : 56 м. 31 с.
Битрейт : 4401 Кбит/сек
Ширина : 1920 пикселей
Высота : 1080 пикселей
Соотношение сторон : 16:9
Режим частоты кадров : Постоянный
Частота кадров : 25,000 кадров/сек
Цветовое пространство : YUV
Субдискретизация насыщенности : 4:2:0
Битовая глубина : 8 бит
Тип развёртки : Прогрессивная
Бит/(Пиксели*Кадры) : 0.085
Размер потока : 1,74 Гбайт (94%)
Библиотека кодирования : x264 core 157 r2958 57baac4
Настройки программы : cabac=1 / ref=4 / deblock=1:-4:-4 / analyse=0x3:0x113 / me=hex / subme=7 / psy=1 / psy_rd=1.00:0.20 / mixed_ref=1 / me_range=16 / chroma_me=1 / trellis=1 / 8x8dct=1 / cqm=0 / deadzone=21,11 / fast_pskip=1 / chroma_qp_offset=-3 / threads=4 / lookahead_threads=1 / sliced_threads=0 / nr=0 / decimate=1 / interlaced=0 / bluray_compat=0 / constrained_intra=0 / bframes=3 / b_pyramid=2 / b_adapt=2 / b_bias=0 / direct=3 / weightb=1 / open_gop=0 / weightp=2 / keyint=250 / keyint_min=25 / scenecut=40 / intra_refresh=0 / rc_lookahead=40 / rc=2pass / mbtree=1 / bitrate=4401 / ratetol=1.0 / qcomp=0.60 / qpmin=0 / qpmax=69 / qpstep=4 / cplxblur=20.0 / qblur=0.5 / ip_ratio=1.40 / aq=1:1.00
Цветовой диапазон : Limited
Основные цвета : BT.709
Характеристики трансфера : BT.709
Коэффициенты матрицы : BT.709
Codec configuration box : avcC

Аудио
Идентификатор : 2
Формат : AAC LC
Формат/Информация : Advanced Audio Codec Low Complexity
Идентификатор кодека : mp4a-40-2
Продолжительность : 56 м. 30 с.
Вид битрейта : Постоянный
Битрейт : 256 Кбит/сек
Каналы : 2 канала
ChannelLayout : L R
Частота : 48,0 КГц
Частота кадров : 46,875 кадров/сек (1024 SPF)
Метод сжатия : С потерями
Размер потока : 103 Мбайт (5%)
Язык : Russian
Default : Да
AlternateGroup/String : 1
Скриншоты видео
2017 Roy Hargrove Quintet - Jazz En Tete [HDTV 1080p] 02017 Roy Hargrove Quintet - Jazz En Tete [HDTV 1080p] 12017 Roy Hargrove Quintet - Jazz En Tete [HDTV 1080p] 22017 Roy Hargrove Quintet - Jazz En Tete [HDTV 1080p] 32017 Roy Hargrove Quintet - Jazz En Tete [HDTV 1080p] 4
Приватный:
Нет (DHT включён)
Размер:
1.84 Гб (1,976,411,417 байт) » файлов: 2
Участники:
1 раздают, 34 качают (35 участников всего)
Внешние участники:
--- [ Обновить ]
No seeders - write a personal message to user M0p94ok. Нет сидеров - пишите личное сообщение пользователю M0p94ok.
178
Нет комментариев. Ваш будет первым!