Поиск

2003 Dianne Reeves Quartet - Live In Paris [HDTV 1080p]

2003 Dianne Reeves Quartet - Live In Paris [HDTV 1080p]
Стили:
Дата проведения концерта (записи):
21 ноября 2003
Место проведения:
New Mornin Club, Paris, France
Время звучания:
00:57:23
Состав:
  • Dianne Reeves (voix)
  • Gregory Hutchinson (batterie)
  • Peter Martin (piano)
  • Ruben Rogers (basse)
Треклист:

1. I remember Sarah
2. Skylark
3. In your eyes
4. That's all
5. A little moonlight
6. Do I move you

Описание:

Качество: HDTVRip 1080p
Контейнер: MKV
Видео кодек: H.264
Аудио кодек: AC3
Видео: 1920x1080 (16:9), 25.00 fps, AVC, MKV, 9214 Кбит, 0.178 bits/pixel
Аудио: 48.0 KHz, AC3, 2 ch, stereo, 256 Kbps

Отчёт DVDInfo/MediaInfo/BDInfo
Полное имя : G:\DVD\Dianne Reeves Quartet (2003)\Dianne Reeves Quartet - Live In Paris.mkv
Формат : Matroska
Размер файла : 3,87 Гбайт
Продолжительность : 57 м.
Общий поток : 9662 Кбит/сек
Программа кодирования : Lavf51.12.1
Библиотека кодирования : Lavf51.12.1

Видео
Идентификатор : 1
Формат : AVC
Формат/Информация : Advanced Video Codec
Профиль формата : Baseline@L4.0
Параметр CABAC формата : Нет
Параметр ReFrames формата : 1 кадр
Параметр GOP формата : M=1, N=12
Идентификатор кодека : V_MPEG4/ISO/AVC
Продолжительность : 57 м.
Вид битрейта : Переменный
Битрейт : 9214 Кбит/сек
Максимальный битрейт : 13,5 Мбит/сек
Ширина : 1920 пикселей
Высота : 1080 пикселей
Соотношение сторон : 16:9
Частота кадров : 25,000 кадров/сек
Частота кадров в оригинале : 24,000 кадра/сек
Цветовое пространство : YUV
Субдискретизация насыщенности : 4:2:0
Битовая глубина : 8 бит
Тип развёртки : Прогрессивная
Бит/(Пиксели*Кадры) : 0.178
Размер потока : 3,69 Гбайт (95%)
Язык : English / English

Аудио
Идентификатор : 2
Формат : AC-3
Формат/Информация : Audio Coding 3
Расширение режима : CM (complete main)
Идентификатор кодека : A_AC3
Продолжительность : 57 м.
Вид битрейта : Постоянный
Битрейт : 256 Кбит/сек
Каналы : 2 канала
Расположение каналов : Front: L R
Частота : 48,0 КГц
Битовая глубина : 16 бит
Метод сжатия : С потерями
Размер потока : 105 Мбайт (3%)
Язык : English / English
Скриншоты видео
2003 Dianne Reeves Quartet - Live In Paris [HDTV 1080p] 02003 Dianne Reeves Quartet - Live In Paris [HDTV 1080p] 12003 Dianne Reeves Quartet - Live In Paris [HDTV 1080p] 22003 Dianne Reeves Quartet - Live In Paris [HDTV 1080p] 32003 Dianne Reeves Quartet - Live In Paris [HDTV 1080p] 42003 Dianne Reeves Quartet - Live In Paris [HDTV 1080p] 52003 Dianne Reeves Quartet - Live In Paris [HDTV 1080p] 62003 Dianne Reeves Quartet - Live In Paris [HDTV 1080p] 72003 Dianne Reeves Quartet - Live In Paris [HDTV 1080p] 82003 Dianne Reeves Quartet - Live In Paris [HDTV 1080p] 92003 Dianne Reeves Quartet - Live In Paris [HDTV 1080p] 102003 Dianne Reeves Quartet - Live In Paris [HDTV 1080p] 11
Приватный:
Нет (DHT включён)
Размер:
3.87 Гб (4,159,082,770 байт) » файлов: 1
Участники:
0 раздают, 0 качают (0 участников всего)
Внешние участники:
1 раздают, 0 качают (1 участников всего) [ Обновить ]
No seeders - write a personal message to user M0p94ok. Нет сидеров - пишите личное сообщение пользователю M0p94ok.
136
Нет комментариев. Ваш будет первым!