Вы используете незарегистрированную версию компонента "Вкладки"!

Поиск

2018 Erik Truffaz Quartet feat. Guillaume Perret - Jazz In Marciac [HDTV 1080i]

2018 Erik Truffaz Quartet feat. Guillaume Perret - Jazz In Marciac [HDTV 1080i]
Место проведения:
Marciac, France
Время звучания:
00:59:26
Главы (разбивка по трекам):
нет
Состав:
  • Erik Truffaz (trompette)
  • Guillaume Perret (saxophone)
  • Benoît Corboz (piano, Fender Rhodes)
  • Marcello Giuliani (basse)
  • Marc Erbetta (percussions)
  • Nya (voix)
Видео:
AVC,1920*1080i (16:9), 6520kbps, 25fps
Аудио#1:
MPEG2, 256kbps, 48kHz, 2ch
Отчёт DVDInfo/MediaInfo/BDInfo
Общее
Полное имя : \\NASF8F4EB\Jul\Dreambox для публикации\2018 Erik Truffaz Quartet feat. Guillaume Perret - Jazz In Marciac [HDTV 1080i]\2018 Erik Truffaz Quartet feat. Guillaume Perret - Jazz In Marciac [HDTV 1080i].mp4
Формат : MPEG-4
Профиль формата : Base Media
Идентификатор кодека : isom (isom/iso2/avc1/mp41)
Размер файла : 2,82 Гбайт
Продолжительность : 59 м. 26 с.
Общий поток : 6781 Кбит/сек
Программа кодирования : Lavf54.63.104

Видео
Идентификатор : 1
Формат : AVC
Формат/Информация : Advanced Video Codec
Профиль формата : High@L4
Настройки формата : CABAC / 4 Ref Frames
Параметр CABAC формата : Да
Параметр RefFrames формата : 4 кадра
Идентификатор кодека : avc1
Идентификатор кодека/Информация : Advanced Video Coding
Продолжительность : 59 м. 26 с.
Битрейт : 6520 Кбит/сек
Ширина : 1920 пикселей
Высота : 1080 пикселей
Соотношение сторон : 16:9
Режим частоты кадров : Постоянный
Частота кадров : 25,000 кадров/сек
Стандарт вещания : Component
Цветовое пространство : YUV
Субдискретизация насыщенности : 4:2:0
Битовая глубина : 8 бит
Тип развёртки : Чересстрочная
Метод сохранения типа развёртки : Раздельные поля
Порядок развёртки : Верхнее поле первое
Бит/(Пиксели*Кадры) : 0.126
Размер потока : 2,71 Гбайт (96%)
Цветовой диапазон : Limited
Основные цвета : BT.709
Характеристики трансфера : BT.709
Коэффициенты матрицы : BT.709
Codec configuration box : avcC

Аудио
Идентификатор : 2
Формат : MPEG Audio
Версия формата : Version 1
Профиль формата : Layer 2
Идентификатор кодека : mp4a-6B
Продолжительность : 59 м. 26 с.
Duration_LastFrame : -24 мс.
Вид битрейта : Постоянный
Битрейт : 256 Кбит/сек
Каналы : 2 канала
Частота : 48,0 КГц
Метод сжатия : С потерями
Размер потока : 109 Мбайт (4%)
Язык : Russian
Default : Да
AlternateGroup/String : 1
Any questions - support@pro-jazz.com. Есть вопросы - support@pro-jazz.com
295