Поиск

2004 Quarteto Morelenbaum - Plays The Music Of Antonio Carlos Jobim, Live in Paris [HDTV 1080p]

2004 Quarteto Morelenbaum - Plays The Music Of Antonio Carlos Jobim, Live in Paris [HDTV 1080p]
Треклист:

01. Desafinado
02. Ela e Carioca
03. Vivo Sonhando
04. Insensatez
05. Dindi
06. Radames y Pele
07. Voce e Eu
08. A Felicidade
09. So Tinha de Ser
10. Falando de Amor
11. Amor Em Paz
12. Lamento do Morro
13. Agua De Beber

Описание:

Quarteto Morelenbaum — Plays The Music Of Antonio Carlos Jobim, Live in Paris, 04. 12. 2003.

Продолжительность: 00:53:13
Год выпуска: 2004
Качество: HDTVRip 1080p
Контейнер: MKV
Видео кодек: H.264
Аудио кодек: AC3
Видео: 1920x1080 (16:9), 25.00 fps, AVC, MKV, 8191 Кбит, 0.158 bits/pixel
Аудио: 48.0 KHz, AC3, 2 ch, 192 Kbps

Отчёт DVDInfo/MediaInfo/BDInfo
Полное имя : G:\DVD\Quarteto Morelenbaum (2003)\Quarteto Morelenbaum - Plays Antonio Carlos Jobim.mkv
Формат : Matroska
Размер файла : 3,18 Гбайт
Продолжительность : 53 м.
Общий поток : 8553 Кбит/сек
Программа кодирования : Lavf51.12.1
Библиотека кодирования : Lavf51.12.1

Видео
Идентификатор : 1
Формат : AVC
Формат/Информация : Advanced Video Codec
Профиль формата : Baseline@L4.0
Параметр CABAC формата : Нет
Параметр ReFrames формата : 1 кадр
Параметр GOP формата : M=1, N=12
Идентификатор кодека : V_MPEG4/ISO/AVC
Продолжительность : 53 м.
Вид битрейта : Переменный
Битрейт : 8191 Кбит/сек
Максимальный битрейт : 12,0 Мбит/сек
Ширина : 1920 пикселей
Высота : 1080 пикселей
Соотношение сторон : 16:9
Частота кадров : 25,000 кадров/сек
Частота кадров в оригинале : 24,000 кадра/сек
Цветовое пространство : YUV
Субдискретизация насыщенности : 4:2:0
Битовая глубина : 8 бит
Тип развёртки : Прогрессивная
Бит/(Пиксели*Кадры) : 0.158
Размер потока : 3,05 Гбайт (96%)
Язык : English / English

Аудио
Идентификатор : 2
Формат : AC-3
Формат/Информация : Audio Coding 3
Расширение режима : CM (complete main)
Идентификатор кодека : A_AC3
Продолжительность : 53 м.
Вид битрейта : Постоянный
Битрейт : 192 Кбит/сек
Каналы : 2 канала
Расположение каналов : Front: L R
Частота : 48,0 КГц
Битовая глубина : 16 бит
Метод сжатия : С потерями
Размер потока : 73,1 Мбайт (2%)
Язык : English / English
Скриншоты видео
2004 Quarteto Morelenbaum - Plays The Music Of Antonio Carlos Jobim, Live in Paris [HDTV 1080p] 02004 Quarteto Morelenbaum - Plays The Music Of Antonio Carlos Jobim, Live in Paris [HDTV 1080p] 12004 Quarteto Morelenbaum - Plays The Music Of Antonio Carlos Jobim, Live in Paris [HDTV 1080p] 22004 Quarteto Morelenbaum - Plays The Music Of Antonio Carlos Jobim, Live in Paris [HDTV 1080p] 32004 Quarteto Morelenbaum - Plays The Music Of Antonio Carlos Jobim, Live in Paris [HDTV 1080p] 42004 Quarteto Morelenbaum - Plays The Music Of Antonio Carlos Jobim, Live in Paris [HDTV 1080p] 52004 Quarteto Morelenbaum - Plays The Music Of Antonio Carlos Jobim, Live in Paris [HDTV 1080p] 62004 Quarteto Morelenbaum - Plays The Music Of Antonio Carlos Jobim, Live in Paris [HDTV 1080p] 72004 Quarteto Morelenbaum - Plays The Music Of Antonio Carlos Jobim, Live in Paris [HDTV 1080p] 82004 Quarteto Morelenbaum - Plays The Music Of Antonio Carlos Jobim, Live in Paris [HDTV 1080p] 9
Download available for power users only.
506
Нет комментариев. Ваш будет первым!