Поиск

2019 Marcus Miller - Laid Black Tour - Estival Jazz Lugano [HDTV 720p]

2019 Marcus Miller - Laid Black Tour - Estival Jazz Lugano [HDTV 720p]
Время звучания:
01:32:49
Главы (разбивка по трекам):
нет
Качество:
HDTV
Разрешение видео/развёртка:
720p
Контейнер:
TS
Видео кодек:
HEVC
Аудио кодек:
AAC
Видео:
MPEG4 Video (H264) 1280x720 50fps 9 959 kb/s
Аудио:
Dolby AC3 48000Hz 6ch 448kbps
Состав:
  • Marcus Miller: bass, bass clarinet
  • Alex Han: alto saxophone
  • Russell Gunn: trumpet
  • James Francies: keyboards
  • Julian Pollack: keyboards
  • Alex Bailey: drums
Треклист:

01. 7-T's
02. Untamed
03. Sublimity 'Bunny's Dream'
04. Detroit
05. Bitches Brew
06. Trip Trap
07. How Great Thou Art
08. Tutu
Encore:
09. Come Together > Hylife

Отчёт DVDInfo/MediaInfo/BDInfo
General
ID : 1700 (0x6A4)
Complete name : F:\Marcus Miller - Laid Black Tour (Estival Jazz Lugano) 2019.ts
Format : MPEG-TS
File size : 7.10 GiB
Duration : 1 h 32 min
Overall bit rate mode : Variable
Overall bit rate : 11.0 Mb/s

Video
ID : 562 (0x232)
Menu ID : 14052 (0x36E4)
Format : AVC
Format/Info : Advanced Video Codec
Format profile : High@L4
Format settings : CABAC / 3 Ref Frames
Format settings, CABAC : Yes
Format settings, ReFrames : 3 frames
Format settings, GOP : M=2, N=24
Codec ID : 27
Duration : 1 h 32 min
Bit rate : 9 959 kb/s
Width : 1 280 pixels
Height : 720 pixels
Display aspect ratio : 16:9
Frame rate : 50.000 FPS
Standard : Component
Color space : YUV
Chroma subsampling : 4:2:0
Bit depth : 8 bits
Scan type : Progressive
Bits/(Pixel*Frame) : 0.216
Stream size : 6.46 GiB (91%)
Encryption : TPS-Crypt or Viaccess
Color range : Limited
Color primaries : BT.709
Transfer characteristics : BT.709
Matrix coefficients : BT.709

Audio
ID : 565 (0x235)
Menu ID : 14052 (0x36E4)
Format : AC-3
Format/Info : Audio Coding 3
Commercial name : Dolby Digital
Codec ID : 6
Duration : 1 h 32 min
Bit rate mode : Constant
Bit rate : 448 kb/s
Channel(s) : 6 channels
Channel layout : L R C LFE Ls Rs
Sampling rate : 48.0 kHz
Frame rate : 31.250 FPS (1536 SPF)
Bit depth : 16 bits
Compression mode : Lossy
Delay relative to video : 68 ms
Stream size : 297 MiB (4%)
Language : Italian
Language, more info : Clean effects
Service kind : Complete Main
Encryption : TPS-Crypt or Viaccess
Скриншоты видео
2019 Marcus Miller - Laid Black Tour - Estival Jazz Lugano [HDTV 720p] 02019 Marcus Miller - Laid Black Tour - Estival Jazz Lugano [HDTV 720p] 12019 Marcus Miller - Laid Black Tour - Estival Jazz Lugano [HDTV 720p] 22019 Marcus Miller - Laid Black Tour - Estival Jazz Lugano [HDTV 720p] 32019 Marcus Miller - Laid Black Tour - Estival Jazz Lugano [HDTV 720p] 42019 Marcus Miller - Laid Black Tour - Estival Jazz Lugano [HDTV 720p] 52019 Marcus Miller - Laid Black Tour - Estival Jazz Lugano [HDTV 720p] 62019 Marcus Miller - Laid Black Tour - Estival Jazz Lugano [HDTV 720p] 72019 Marcus Miller - Laid Black Tour - Estival Jazz Lugano [HDTV 720p] 82019 Marcus Miller - Laid Black Tour - Estival Jazz Lugano [HDTV 720p] 92019 Marcus Miller - Laid Black Tour - Estival Jazz Lugano [HDTV 720p] 102019 Marcus Miller - Laid Black Tour - Estival Jazz Lugano [HDTV 720p] 112019 Marcus Miller - Laid Black Tour - Estival Jazz Lugano [HDTV 720p] 122019 Marcus Miller - Laid Black Tour - Estival Jazz Lugano [HDTV 720p] 132019 Marcus Miller - Laid Black Tour - Estival Jazz Lugano [HDTV 720p] 142019 Marcus Miller - Laid Black Tour - Estival Jazz Lugano [HDTV 720p] 152019 Marcus Miller - Laid Black Tour - Estival Jazz Lugano [HDTV 720p] 162019 Marcus Miller - Laid Black Tour - Estival Jazz Lugano [HDTV 720p] 172019 Marcus Miller - Laid Black Tour - Estival Jazz Lugano [HDTV 720p] 182019 Marcus Miller - Laid Black Tour - Estival Jazz Lugano [HDTV 720p] 19
Приватный:
Нет (DHT включён)
Размер:
7.10 Гб (7,624,116,280 байт) » файлов: 2
Участники:
0 раздают, 0 качают (0 участников всего)
Внешние участники:
--- [ Обновить ]
Скорость:
3.70 Мб/c 0/c
No seeders - write a personal message to user M0p94ok. Нет сидеров - пишите личное сообщение пользователю M0p94ok.
291
Нет комментариев. Ваш будет первым!