Вы используете незарегистрированную версию компонента "Вкладки"!

Поиск

2019 Erik Truffaz Quartet feat. Nya - Bending New Corners At Montreal Jazz Fest [HDTV 1080i]

2019 Erik Truffaz Quartet feat. Nya - Bending New Corners At Montreal Jazz Fest [HDTV 1080i]
Дата проведения концерта (записи):
28 июня 2019
Место проведения:
Montreal Jazz Festival
Время звучания:
01:38:
Главы (разбивка по трекам):
нет
Состав:
  • Erik Truffaz - trumpet
  • Nya - vocals
  • Marcello Giuliano - bass
  • Marc Erbetta - drums
  • Benoît Corboz - piano
Видео:
AVC,1920*1080i (16:9), 4617kbps, 25fps
Аудио#1:
MPEG2, 256kbps, 48kHz, 2ch
Отчёт DVDInfo/MediaInfo/BDInfo
Общее
Полное имя : C:\Users\julpu\Videos\2019 Erik Truffaz feat. Nya - Montreal Jazz Fest [HDTV 1080i]\2019 Erik Truffaz feat. Nya - Montreal Jazz Fest [HDTV 1080i].mp4
Формат : MPEG-4
Профиль формата : Base Media
Идентификатор кодека : isom (isom/iso2/avc1/mp41)
Размер файла : 3,36 Гбайт
Продолжительность : 1 ч. 38 м.
Общий поток : 4878 Кбит/сек
Программа кодирования : Lavf54.63.104

Видео
Идентификатор : 1
Формат : AVC
Формат/Информация : Advanced Video Codec
Профиль формата : High@L4
Настройки формата : CABAC / 4 Ref Frames
Параметр CABAC формата : Да
Параметр RefFrames формата : 4 кадра
Параметр GOP формата : M=4, N=28
Идентификатор кодека : avc1
Идентификатор кодека/Информация : Advanced Video Coding
Продолжительность : 1 ч. 38 м.
Битрейт : 4617 Кбит/сек
Ширина : 1920 пикселей
Высота : 1080 пикселей
Соотношение сторон : 16:9
Режим частоты кадров : Постоянный
Частота кадров : 25,000 кадров/сек
Стандарт вещания : Component
Цветовое пространство : YUV
Субдискретизация насыщенности : 4:2:0
Битовая глубина : 8 бит
Тип развёртки : Чересстрочная
Метод сохранения типа развёртки : Раздельные поля
Порядок развёртки : Верхнее поле первое
Бит/(Пиксели*Кадры) : 0.089
Размер потока : 3,18 Гбайт (95%)
Цветовой диапазон : Limited
Основные цвета : BT.709
Характеристики трансфера : BT.709
Коэффициенты матрицы : BT.709
Codec configuration box : avcC

Аудио
Идентификатор : 2
Формат : MPEG Audio
Версия формата : Version 1
Профиль формата : Layer 2
Идентификатор кодека : mp4a-6B
Продолжительность : 1 ч. 38 м.
Duration_LastFrame : -24 мс.
Вид битрейта : Постоянный
Битрейт : 256 Кбит/сек
Каналы : 2 канала
Частота : 48,0 КГц
Метод сжатия : С потерями
Размер потока : 181 Мбайт (5%)
Язык : Russian
Default : Да
AlternateGroup/String : 1
Any questions - support@pro-jazz.com. Есть вопросы - support@pro-jazz.com
821
19:33


Полноразмерные обложки на форуме

Eric Truffaz feat. Nya