Вы используете незарегистрированную версию компонента "Вкладки"!

Поиск

2017 Guillaume Perret - Jazz a Vienne [HDTV 1080i]

2017 Guillaume Perret - Jazz a Vienne [HDTV 1080i]
Дата проведения концерта (записи):
13 июля 2017
Место проведения:
Théâtre Antique
Время звучания:
01:14:16
Главы (разбивка по трекам):
нет
Видео:
AVC,1920*1080i (16:9), 5175kbps, 25fps
Аудио#1:
MPEG2, 256kbps, 48kHz, 2ch
Отчёт DVDInfo/MediaInfo/BDInfo
Общее
Уникальный идентификатор : 335451705112769964521479728084995921589 (0xFC5DA5FC0D12AA2EE877F1FF2CF9D6B5)
Полное имя : C:\Users\julpu\Videos\2017 Guillaume Perret - Jazz a Vienne [HDTV 1080i]\2017 Guillaume Perret - Jazz a Vienne [HDTV 1080i].mkv
Формат : Matroska
Версия формата : Version 2
Размер файла : 2,88 Гбайт
Продолжительность : 1 ч. 14 м.
Общий поток : 5542 Кбит/сек
Программа кодирования : Lavf54.63.104
Библиотека кодирования : Lavf54.63.104

Видео
Идентификатор : 1
Формат : AVC
Формат/Информация : Advanced Video Codec
Профиль формата : High@L4
Настройки формата : CABAC / 4 Ref Frames
Параметр CABAC формата : Да
Параметр RefFrames формата : 4 кадра
Параметр GOP формата : M=4, N=28
Идентификатор кодека : V_MPEG4/ISO/AVC
Продолжительность : 1 ч. 14 м.
Битрейт : 5175 Кбит/сек
Ширина : 1920 пикселей
Высота : 1080 пикселей
Соотношение сторон : 16:9
Режим частоты кадров : Постоянный
Частота кадров : 25,000 кадров/сек
Стандарт вещания : Component
Цветовое пространство : YUV
Субдискретизация насыщенности : 4:2:0
Битовая глубина : 8 бит
Тип развёртки : Чересстрочная
Метод сохранения типа развёртки : Раздельные поля
Порядок развёртки : Верхнее поле первое
Бит/(Пиксели*Кадры) : 0.100
Размер потока : 2,69 Гбайт (93%)
Default : Нет
Forced : Нет
Цветовой диапазон : Limited
Основные цвета : BT.709
Характеристики трансфера : BT.709
Коэффициенты матрицы : BT.709

Аудио
Идентификатор : 2
Формат : MPEG Audio
Версия формата : Version 1
Профиль формата : Layer 2
Идентификатор кодека : A_MPEG/L2
Идентификатор кодека/Подсказка : MP2
Продолжительность : 1 ч. 14 м.
Вид битрейта : Постоянный
Битрейт : 256 Кбит/сек
Каналы : 2 канала
Частота : 48,0 КГц
Метод сжатия : С потерями
Размер потока : 136 Мбайт (5%)
Язык : Russian
Default : Да
Forced : Нет
Any questions - support@pro-jazz.com. Есть вопросы - support@pro-jazz.com
362
Нет комментариев. Ваш будет первым!