Вы используете незарегистрированную версию компонента "Вкладки"!

Поиск

2012 Melody Gardot - Avo Session [HDTV 720p]

2012 Melody Gardot - Avo Session [HDTV 720p]
Описание:

Продолжительность: 00:01:08
Год выпуска: 2012

Качество: HDTV 720p
Контейнер: TS
Видео кодек: H.264
Аудио кодек: AC3
Видео: H.264; 1280x720; 11.4 Mbps; 50.000 fps
Аудио: AC-3; 448 Kbps; 48,0 КГц; 2 ch

Отчёт DVDInfo/MediaInfo/BDInfo
ID : 6 (0x6)
Complete name :Melody Gardot at Avo Session.ts
Format : MPEG-TS
File size : 5.95 GiB
Duration : 1h 8mn
Overall bit rate mode : Variable
Overall bit rate : 12.4 Mbps

Video
ID : 5111 (0x13F7)
Menu ID : 10302 (0x283E)
Format : AVC
Format/Info : Advanced Video Codec
Format profile : High@L3.2
Format settings, CABAC : Yes
Format settings, ReFrames : 4 frames
Format settings, GOP : M=4, N=16
Codec ID : 27
Duration : 1h 8mn
Bit rate : 11.4 Mbps
Width : 1 280 pixels
Height : 720 pixels
Display aspect ratio : 16:9
Frame rate : 50.000 fps
Color space : YUV
Chroma subsampling : 4:2:0
Bit depth : 8 bits
Scan type : Progressive
Bits/(Pixel*Frame) : 0.246
Stream size : 5.44 GiB (91%)

Audio
ID : 5116 (0x13FC)
Menu ID : 10302 (0x283E)
Format : AC-3
Format/Info : Audio Coding 3
Mode extension : CM (complete main)
Format settings, Endianness : Big
Codec ID : 6
Duration : 1h 8mn
Bit rate mode : Constant
Bit rate : 448 Kbps
Channel(s) : 2 channels
Channel positions : Front: L R
Sampling rate : 48.0 KHz
Bit depth : 16 bits
Compression mode : Lossy
Delay relative to video : 128ms
Stream size : 220 MiB (4%)
Language : German
Any questions - support@pro-jazz.com. Есть вопросы - support@pro-jazz.com
284
Нет комментариев. Ваш будет первым!