Вы используете незарегистрированную версию компонента "Вкладки"!

Поиск

2012 Esperanza Spalding 33th Leverkusener Jazztage [HDTV 720p]

2012 Esperanza Spalding 33th Leverkusener Jazztage [HDTV 720p]
Состав:

 

  • Esperanza Spalding: bass, bass guitar, vocals
  • Leala Cyr: trumpet, flugel horn, backing vocals
  • Igmar Thomas: trumpet
  • Jeff Galindo: trombone
  • Corey King: trombone
  • Tia Fuller: alto saxophone
  • Renato Caranto: soprano & tenor saxophones, flute
  • Brian Landrus: tenor & baritone saxophones
  • Leo Genovese: piano, electric piano
  • Jef Lee Johnson: guitar
  • Lyndon Rochelle: drums
  • Chris Turner: vocals
Описание:

 

Продолжительность: 59:21
Год выпуска: 2012
Описание: Leverkusen, Germany 2012-November-06

Качество: HDTV 720p
Контейнер: MKV
Видео кодек: H.264
Аудио кодек: AC3
Видео: AVC, 1280:720, 12,0 mbps, 50 fps
Аудио: AC3, 448 kbps, 48 kHz, 2 ch
Аудио 2: MP2, 256 kbps, 48 kHz, 2 ch

Отчёт DVDInfo/MediaInfo/BDInfo
Уникальный идентификатор : 190530662527816856155066222226867174132 (0x8F56DEEE9FF5BE4EA889E852BD333AF4)
Полное имя : I:\DVDdecrypter\Esperanza Spalding - 33th Leverkusener Jazztage 2012 [HDTV 720p].mkv
Формат : Matroska
Версия формата : Version 4 / Version 2
Размер файла : 5,38 Гбайт
Продолжительность : 59 м.
Режим общего битрейта : Переменный
Общий поток : 13,0 Мбит/сек
Дата кодирования : UTC 2010-02-22 21:41:31
Программа кодирования : mkvmerge v5.9.0 ('On The Loose') built on Dec 9 2012 15:37:01
Библиотека кодирования : libebml v1.3.0 + libmatroska v1.4.0

Видео
Идентификатор : 1
Формат : AVC
Формат/Информация : Advanced Video Codec
Профиль формата : High@L4.0
Параметр CABAC формата : Да
Параметр ReFrames формата : 6 кадров
Режим смешивания : Header stripping
Идентификатор кодека : V_MPEG4/ISO/AVC
Продолжительность : 59 м.
Вид битрейта : Переменный
Битрейт : 12,0 Мбит/сек
Максимальный битрейт : 40,0 Мбит/сек
Ширина : 1280 пикселей
Высота : 720 пикселей
Соотношение сторон : 16:9
Режим частоты кадров : Постоянный
Частота кадров : 50,000 кадров/сек
Цветовое пространство : YUV
Субдискретизация насыщенности : 4:2:0
Битовая глубина : 8 бит
Тип развёртки : Прогрессивная
Бит/(Пиксели*Кадры) : 0.261
Размер потока : 4,98 Гбайт (93%)
Язык : English
Default : Да
Forced : Да
Основные цвета : BT.709
Характеристики трансфера : BT.709
Коэффициенты матрицы : BT.709

Аудио #1
Идентификатор : 2
Формат : AC-3
Формат/Информация : Audio Coding 3
Расширение режима : CM (complete main)
Параметр Endianness формата : Big
Режим смешивания : Header stripping
Идентификатор кодека : A_AC3
Продолжительность : 59 м.
Вид битрейта : Постоянный
Битрейт : 448 Кбит/сек
Каналы : 2 канала
Расположение каналов : Front: L R
Частота : 48,0 КГц
Битовая глубина : 16 бит
Метод сжатия : С потерями
Размер потока : 190 Мбайт (3%)
Заголовок : AC3 2ch
Язык : English
Default : Да
Forced : Нет

Аудио #2
Идентификатор : 3
Формат : MPEG Audio
Версия формата : Version 1
Профиль формата : Layer 2
Режим смешивания : Header stripping
Идентификатор кодека : A_MPEG/L2
Идентификатор кодека/Подсказка : MP2
Продолжительность : 59 м.
Вид битрейта : Постоянный
Битрейт : 256 Кбит/сек
Каналы : 2 канала
Частота : 48,0 КГц
Метод сжатия : С потерями
Размер потока : 109 Мбайт (2%)
Заголовок : MP2 2ch
Язык : English
Default : Нет
Forced : Нет
Any questions - support@pro-jazz.com. Есть вопросы - support@pro-jazz.com
294
14:05