Поиск

2008 JazzMix - 8 Jazz Concerts - 8 Films Live in NYC [2 Blu-ray]

2008 JazzMix - 8 Jazz Concerts - 8 Films Live in NYC [2 Blu-ray]
Дополнительная информация:
 
BDInfo Disc 1
DISC INFO:
Disc Title:     BARKING DOGS 1
Disc Size:      47 178 806 996 bytes
Protection:     AACS
BD-Java:        No
BDInfo:         0.5.6
PLAYLIST REPORT:
Name:                   00001.MPLS
Length:                 1:06:18 (h:m:s)
Size:                   12 986 542 080 bytes
Total Bitrate:          26,11 Mbps
VIDEO:
Codec                   Bitrate             Description
-----                   -------             -----------
MPEG-4 AVC Video        17978 kbps          1080i / 29,970 fps / 16:9 / High Profile 4.1
AUDIO:
Codec                           Language        Bitrate         Description
-----                           --------        -------         -----------
LPCM Audio                      English         2304 kbps       2.0 / 48 kHz / 2304 kbps / 24-bit
DTS-HD Master Audio             English         4394 kbps       5.1 / 48 kHz / 4394 kbps / 24-bit (DTS Core: 5.1 / 48 kHz / 1509 kbps / 24-bit)
FILES:
Name            Time In         Length          Size            Total Bitrate
----            -------         ------          ----            -------------
00002.M2TS      0:00:00.000     1:06:09.165     12 972 447 744  26 146
00007.M2TS      1:06:09.165     0:00:09.175     14 094 336      12 288
CHAPTERS:
Number          Time In         Length          Avg Video Rate  Max 1-Sec Rate  Max 1-Sec Time  Max 5-Sec Rate  Max 5-Sec Time  Max 10Sec Rate  Max 10Sec Time  Avg Frame Size  Max Frame Size  Max Frame Time
------          -------         ------          --------------  --------------  --------------  --------------  --------------  --------------  --------------  --------------  --------------  --------------
1               0:00:00.000     0:50:18.281     18 152 kbps     33 176 kbps     00:00:29.429    30 984 kbps     00:00:29.329    29 611 kbps     00:35:01.532    75 707 bytes    332 340 bytes   00:00:29.796
2               0:50:18.281     0:16:00.059     17 434 kbps     32 907 kbps     01:05:09.272    32 092 kbps     01:05:09.405    31 676 kbps     01:05:29.558    72 715 bytes    325 731 bytes   01:06:14.170
STREAM DIAGNOSTICS:
File            PID             Type            Codec           Language                Seconds                 Bitrate                 Bytes           Packets
----            ---             ----            -----           --------                --------------          --------------          -------------   -----
00002.M2TS      4113 (0x1011)   0x1B            AVC                                     3969,098                17 993                  8 927 114 370   48 586 307
00002.M2TS      4352 (0x1100)   0x80            LPCM            eng (English)           3969,098                2 310                   1 146 175 000   6 350 000
00002.M2TS      4353 (0x1101)   0x86            DTS-HD MA       eng (English)           3969,098                4 405                   2 185 324 528   12 495 526
00007.M2TS      4113 (0x1011)   0x1B            AVC                                     9,042                   11 873                  13 420 427      73 088
[/code]
<---- END FORUMS PASTE ---->
QUICK SUMMARY:
Disc Title: BARKING DOGS 1
Disc Size: 47 178 806 996 bytes
Protection: AACS
BD-Java: No
Playlist: 00001.MPLS
Size: 12 986 542 080 bytes
Length: 1:06:18
Total Bitrate: 26,11 Mbps
Video: MPEG-4 AVC Video / 17978 kbps / 1080i / 29,970 fps / 16:9 / High Profile 4.1
Audio: English / LPCM Audio / 2.0 / 48 kHz / 2304 kbps / 24-bit
Audio: English / DTS-HD Master Audio / 5.1 / 48 kHz / 4394 kbps / 24-bit (DTS Core: 5.1 / 48 kHz / 1509 kbps / 24-bit)
********************
PLAYLIST: 00002.MPLS
********************
<--- BEGIN FORUMS PASTE --->

Код:

Total   Video
Title                                                           Codec   Length  Movie Size      Disc Size       Bitrate Bitrate Main Audio Track                          Secondary Audio Track
-----                                                           ------  ------- --------------  --------------  ------- ------- ------------------                        ---------------------
00002.MPLS                                                      AVC     1:00:28 11 910 641 664  47 178 806 996  26,26   17,97   LPCM 2.0 2304Kbps (48kHz/24-bit)          DTS-HD Master 5.1 4545Kbps (48kHz/24-bit)

Код:

DISC INFO:
Disc Title:     BARKING DOGS 1
Disc Size:      47 178 806 996 bytes
Protection:     AACS
BD-Java:        No
BDInfo:         0.5.6
PLAYLIST REPORT:
Name:                   00002.MPLS
Length:                 1:00:28 (h:m:s)
Size:                   11 910 641 664 bytes
Total Bitrate:          26,26 Mbps
VIDEO:
Codec                   Bitrate             Description
-----                   -------             -----------
MPEG-4 AVC Video        17972 kbps          1080i / 29,970 fps / 16:9 / High Profile 4.1
AUDIO:
Codec                           Language        Bitrate         Description
-----                           --------        -------         -----------
LPCM Audio                      English         2304 kbps       2.0 / 48 kHz / 2304 kbps / 24-bit
DTS-HD Master Audio             English         4545 kbps       5.1 / 48 kHz / 4545 kbps / 24-bit (DTS Core: 5.1 / 48 kHz / 1509 kbps / 24-bit)
FILES:
Name            Time In         Length          Size            Total Bitrate
----            -------         ------          ----            -------------
00003.M2TS      0:00:00.000     1:00:18.848     11 896 547 328  26 299
00007.M2TS      1:00:18.848     0:00:09.175     14 094 336      12 288
CHAPTERS:
Number          Time In         Length          Avg Video Rate  Max 1-Sec Rate  Max 1-Sec Time  Max 5-Sec Rate  Max 5-Sec Time  Max 10Sec Rate  Max 10Sec Time  Avg Frame Size  Max Frame Size  Max Frame Time
------          -------         ------          --------------  --------------  --------------  --------------  --------------  --------------  --------------  --------------  --------------  --------------
1               0:00:00.000     0:17:39.925     16 918 kbps     30 128 kbps     00:13:11.957    26 675 kbps     00:00:25.792    25 895 kbps     00:00:25.992    70 558 bytes    316 983 bytes   00:13:12.358
2               0:17:39.925     0:11:31.157     18 144 kbps     30 358 kbps     00:21:11.003    25 013 kbps     00:24:39.578    23 151 kbps     00:21:53.445    75 677 bytes    276 808 bytes   00:21:13.038
3               0:29:11.082     0:12:09.495     18 215 kbps     27 320 kbps     00:37:15.333    25 743 kbps     00:37:12.863    22 808 kbps     00:29:58.429    75 972 bytes    272 595 bytes   00:32:23.141
4               0:41:20.578     0:19:07.446     18 687 kbps     32 620 kbps     00:59:20.323    32 070 kbps     00:59:48.718    31 926 kbps     00:59:50.753    77 942 bytes    337 772 bytes   01:00:00.563
STREAM DIAGNOSTICS:
File            PID             Type            Codec           Language                Seconds                 Bitrate                 Bytes           Packets
----            ---             ----            -----           --------                --------------          --------------          -------------   -----
00003.M2TS      4113 (0x1011)   0x1B            AVC                                     3618,748                17 988                  8 136 825 745   44 285 082
00003.M2TS      4352 (0x1100)   0x80            LPCM            eng (English)           3618,748                2 309                   1 044 669 020   5 787 640
00003.M2TS      4353 (0x1101)   0x86            DTS-HD MA       eng (English)           3618,748                4 557                   2 061 377 184   11 767 233
00007.M2TS      4113 (0x1011)   0x1B            AVC                                     9,042                   11 873                  13 420 427      73 088

<---- END FORUMS PASTE ---->
QUICK SUMMARY:
Disc Title: BARKING DOGS 1
Disc Size: 47 178 806 996 bytes
Protection: AACS
BD-Java: No
Playlist: 00002.MPLS
Size: 11 910 641 664 bytes
Length: 1:00:28
Total Bitrate: 26,26 Mbps
Video: MPEG-4 AVC Video / 17972 kbps / 1080i / 29,970 fps / 16:9 / High Profile 4.1
Audio: English / LPCM Audio / 2.0 / 48 kHz / 2304 kbps / 24-bit
Audio: English / DTS-HD Master Audio / 5.1 / 48 kHz / 4545 kbps / 24-bit (DTS Core: 5.1 / 48 kHz / 1509 kbps / 24-bit)
********************
PLAYLIST: 00003.MPLS
********************
<--- BEGIN FORUMS PASTE --->

Код:

Total   Video
Title                                                           Codec   Length  Movie Size      Disc Size       Bitrate Bitrate Main Audio Track                          Secondary Audio Track
-----                                                           ------  ------- --------------  --------------  ------- ------- ------------------                        ---------------------
00003.MPLS                                                      AVC     1:00:22 11 974 311 936  47 178 806 996  26,45   17,97   LPCM 2.0 2304Kbps (48kHz/24-bit)          DTS-HD Master 5.1 4724Kbps (48kHz/24-bit)

Код:

DISC INFO:
Disc Title:     BARKING DOGS 1
Disc Size:      47 178 806 996 bytes
Protection:     AACS
BD-Java:        No
BDInfo:         0.5.6
PLAYLIST REPORT:
Name:                   00003.MPLS
Length:                 1:00:22 (h:m:s)
Size:                   11 974 311 936 bytes
Total Bitrate:          26,45 Mbps
VIDEO:
Codec                   Bitrate             Description
-----                   -------             -----------
MPEG-4 AVC Video        17969 kbps          1080i / 29,970 fps / 16:9 / High Profile 4.1
AUDIO:
Codec                           Language        Bitrate         Description
-----                           --------        -------         -----------
LPCM Audio                      English         2304 kbps       2.0 / 48 kHz / 2304 kbps / 24-bit
DTS-HD Master Audio             English         4724 kbps       5.1 / 48 kHz / 4724 kbps / 24-bit (DTS Core: 5.1 / 48 kHz / 1509 kbps / 24-bit)
FILES:
Name            Time In         Length          Size            Total Bitrate
----            -------         ------          ----            -------------
00004.M2TS      0:00:00.000     1:00:12.842     11 960 217 600  26 484
00007.M2TS      1:00:12.842     0:00:09.175     14 094 336      12 288
CHAPTERS:
Number          Time In         Length          Avg Video Rate  Max 1-Sec Rate  Max 1-Sec Time  Max 5-Sec Rate  Max 5-Sec Time  Max 10Sec Rate  Max 10Sec Time  Avg Frame Size  Max Frame Size  Max Frame Time
------          -------         ------          --------------  --------------  --------------  --------------  --------------  --------------  --------------  --------------  --------------  --------------
1               0:00:00.000     0:18:32.978     19 447 kbps     33 468 kbps     00:00:32.332    31 040 kbps     00:00:32.399    29 350 kbps     00:00:30.663    81 106 bytes    416 190 bytes   00:00:34.033
2               0:18:32.978     0:16:27.886     15 896 kbps     24 540 kbps     00:23:19.264    22 645 kbps     00:33:32.343    20 861 kbps     00:30:34.065    66 301 bytes    282 205 bytes   00:33:35.380
3               0:35:00.865     0:12:52.371     17 692 kbps     25 744 kbps     00:39:16.320    24 072 kbps     00:39:16.120    22 752 kbps     00:39:12.416    73 788 bytes    262 822 bytes   00:43:33.444
4               0:47:53.237     0:12:28.781     18 796 kbps     32 746 kbps     00:59:47.050    31 871 kbps     00:59:46.249    30 937 kbps     00:59:41.577    78 398 bytes    325 731 bytes   01:00:17.847
STREAM DIAGNOSTICS:
File            PID             Type            Codec           Language                Seconds                 Bitrate                 Bytes           Packets
----            ---             ----            -----           --------                --------------          --------------          -------------   -----
00004.M2TS      4113 (0x1011)   0x1B            AVC                                     3612,742                17 986                  8 122 298 790   44 206 041
00004.M2TS      4352 (0x1100)   0x80            LPCM            eng (English)           3612,742                2 310                   1 042 978 096   5 778 272
00004.M2TS      4353 (0x1101)   0x86            DTS-HD MA       eng (English)           3612,742                4 736                   2 138 920 408   12 187 440
00007.M2TS      4113 (0x1011)   0x1B            AVC                                     9,042                   11 873                  13 420 427      73 088

<---- END FORUMS PASTE ---->
QUICK SUMMARY:
Disc Title: BARKING DOGS 1
Disc Size: 47 178 806 996 bytes
Protection: AACS
BD-Java: No
Playlist: 00003.MPLS
Size: 11 974 311 936 bytes
Length: 1:00:22
Total Bitrate: 26,45 Mbps
Video: MPEG-4 AVC Video / 17969 kbps / 1080i / 29,970 fps / 16:9 / High Profile 4.1
Audio: English / LPCM Audio / 2.0 / 48 kHz / 2304 kbps / 24-bit
Audio: English / DTS-HD Master Audio / 5.1 / 48 kHz / 4724 kbps / 24-bit (DTS Core: 5.1 / 48 kHz / 1509 kbps / 24-bit)
********************
PLAYLIST: 00004.MPLS
********************
<--- BEGIN FORUMS PASTE --->

Код:

Total   Video
Title                                                           Codec   Length  Movie Size      Disc Size       Bitrate Bitrate Main Audio Track                          Secondary Audio Track
-----                                                           ------  ------- --------------  --------------  ------- ------- ------------------                        ---------------------
00004.MPLS                                                      AVC     0:51:18 10 227 099 648  47 178 806 996  26,58   17,98   LPCM 2.0 2304Kbps (48kHz/24-bit)          DTS-HD Master 5.1 4841Kbps (48kHz/24-bit)

Код:

DISC INFO:
Disc Title:     BARKING DOGS 1
Disc Size:      47 178 806 996 bytes
Protection:     AACS
BD-Java:        No
BDInfo:         0.5.6
PLAYLIST REPORT:
Name:                   00004.MPLS
Length:                 0:51:18 (h:m:s)
Size:                   10 227 099 648 bytes
Total Bitrate:          26,58 Mbps
VIDEO:
Codec                   Bitrate             Description
-----                   -------             -----------
MPEG-4 AVC Video        17979 kbps          1080i / 29,970 fps / 16:9 / High Profile 4.1
AUDIO:
Codec                           Language        Bitrate         Description
-----                           --------        -------         -----------
LPCM Audio                      English         2304 kbps       2.0 / 48 kHz / 2304 kbps / 24-bit
DTS-HD Master Audio             English         4841 kbps       5.1 / 48 kHz / 4841 kbps / 24-bit (DTS Core: 5.1 / 48 kHz / 1509 kbps / 24-bit)
FILES:
Name            Time In         Length          Size            Total Bitrate
----            -------         ------          ----            -------------
00005.M2TS      0:00:00.000     0:51:09.132     10 213 005 312  26 621
00007.M2TS      0:51:09.132     0:00:09.175     14 094 336      12 288
CHAPTERS:
Number          Time In         Length          Avg Video Rate  Max 1-Sec Rate  Max 1-Sec Time  Max 5-Sec Rate  Max 5-Sec Time  Max 10Sec Rate  Max 10Sec Time  Avg Frame Size  Max Frame Size  Max Frame Time
------          -------         ------          --------------  --------------  --------------  --------------  --------------  --------------  --------------  --------------  --------------  --------------
1               0:00:00.000     0:07:57.610     17 796 kbps     32 663 kbps     00:00:57.424    31 141 kbps     00:00:56.589    25 830 kbps     00:00:55.021    74 219 bytes    308 184 bytes   00:00:48.915
2               0:07:57.610     0:04:36.442     17 973 kbps     26 154 kbps     00:10:27.960    22 927 kbps     00:10:25.458    21 186 kbps     00:08:37.416    74 962 bytes    225 252 bytes   00:10:58.124
3               0:12:34.053     0:02:21.808     17 065 kbps     24 405 kbps     00:13:48.093    23 538 kbps     00:13:45.558    22 054 kbps     00:13:40.519    71 177 bytes    232 302 bytes   00:14:47.620
4               0:14:55.861     0:03:07.921     17 327 kbps     24 140 kbps     00:18:02.514    19 940 kbps     00:15:33.699    19 645 kbps     00:17:00.619    72 268 bytes    282 856 bytes   00:18:03.148
5               0:18:03.782     0:04:40.346     18 486 kbps     26 953 kbps     00:21:56.148    26 364 kbps     00:21:53.812    25 025 kbps     00:21:51.243    77 102 bytes    280 355 bytes   00:18:04.783
6               0:22:44.129     0:03:25.438     17 899 kbps     25 357 kbps     00:25:40.338    22 495 kbps     00:25:37.602    21 314 kbps     00:25:31.863    74 654 bytes    224 990 bytes   00:23:23.201
7               0:26:09.567     0:05:29.362     17 714 kbps     25 201 kbps     00:27:54.539    22 801 kbps     00:27:53.605    21 193 kbps     00:26:59.684    73 884 bytes    232 725 bytes   00:29:02.640
8               0:31:38.930     0:04:46.085     18 658 kbps     26 601 kbps     00:33:11.589    24 677 kbps     00:33:10.555    23 909 kbps     00:35:35.900    77 818 bytes    237 152 bytes   00:33:50.461
9               0:36:25.016     0:05:15.181     17 686 kbps     26 009 kbps     00:38:49.226    23 383 kbps     00:40:52.283    22 301 kbps     00:39:25.129    73 767 bytes    230 931 bytes   00:37:27.144
10              0:41:40.197     0:09:38.110     18 325 kbps     32 285 kbps     00:50:45.742    31 924 kbps     00:50:45.008    31 113 kbps     00:50:40.370    76 434 bytes    332 409 bytes   00:50:47.477
STREAM DIAGNOSTICS:
File            PID             Type            Codec           Language                Seconds                 Bitrate                 Bytes           Packets
----            ---             ----            -----           --------                --------------          --------------          -------------   -----
00005.M2TS      4113 (0x1011)   0x1B            AVC                                     3068,999                17 998                  6 904 601 499   37 578 427
00005.M2TS      4352 (0x1100)   0x80            LPCM            eng (English)           3068,999                2 310                   886 112 044     4 909 208
00005.M2TS      4353 (0x1101)   0x86            DTS-HD MA       eng (English)           3068,999                4 856                   1 862 790 836   10 602 278
00007.M2TS      4113 (0x1011)   0x1B            AVC                                     9,042                   11 873                  13 420 427      73 088

<---- END FORUMS PASTE ---->
QUICK SUMMARY:
Disc Title: BARKING DOGS 1
Disc Size: 47 178 806 996 bytes
Protection: AACS
BD-Java: No
Playlist: 00004.MPLS
Size: 10 227 099 648 bytes
Length: 0:51:18
Total Bitrate: 26,58 Mbps
Video: MPEG-4 AVC Video / 17979 kbps / 1080i / 29,970 fps / 16:9 / High Profile 4.1
Audio: English / LPCM Audio / 2.0 / 48 kHz / 2304 kbps / 24-bit
Audio: English / DTS-HD Master Audio / 5.1 / 48 kHz / 4841 kbps / 24-bit (DTS Core: 5.1 / 48 kHz / 1509 kbps / 24-bit)
 
BDInfo Disc 2
DISC INFO:
Disc Title:     BARKING DOGS 2
Disc Size:      45 255 320 160 bytes
Protection:     AACS
BD-Java:        No
BDInfo:         0.5.6
PLAYLIST REPORT:
Name:                   00003.MPLS
Length:                 1:01:38 (h:m:s)
Size:                   12 126 474 240 bytes
Total Bitrate:          26,23 Mbps
VIDEO:
Codec                   Bitrate             Description
-----                   -------             -----------
MPEG-4 AVC Video        17980 kbps          1080i / 29,970 fps / 16:9 / High Profile 4.1
AUDIO:
Codec                           Language        Bitrate         Description
-----                           --------        -------         -----------
LPCM Audio                      English         2304 kbps       2.0 / 48 kHz / 2304 kbps / 24-bit
DTS-HD Master Audio             English         4500 kbps       5.1 / 48 kHz / 4500 kbps / 24-bit (DTS Core: 5.1 / 48 kHz / 1509 kbps / 24-bit)
FILES:
Name            Time In         Length          Size            Total Bitrate
----            -------         ------          ----            -------------
00004.M2TS      0:00:00.000     1:01:38.261     12 126 474 240  26 232
CHAPTERS:
Number          Time In         Length          Avg Video Rate  Max 1-Sec Rate  Max 1-Sec Time  Max 5-Sec Rate  Max 5-Sec Time  Max 10Sec Rate  Max 10Sec Time  Avg Frame Size  Max Frame Size  Max Frame Time
------          -------         ------          --------------  --------------  --------------  --------------  --------------  --------------  --------------  --------------  --------------  --------------
1               0:00:00.000     0:05:13.813     18 374 kbps     33 596 kbps     00:00:37.003    32 213 kbps     00:00:52.819    31 934 kbps     00:01:02.996    76 628 bytes    379 084 bytes   00:00:57.690
2               0:05:13.813     0:07:06.592     16 371 kbps     27 579 kbps     00:09:54.226    24 116 kbps     00:05:43.776    23 863 kbps     00:05:42.909    68 280 bytes    259 770 bytes   00:05:45.244
3               0:12:20.406     0:05:54.220     15 024 kbps     27 932 kbps     00:17:08.026    21 582 kbps     00:17:07.459    18 779 kbps     00:13:56.135    62 661 bytes    220 949 bytes   00:17:08.827
4               0:18:14.626     0:04:31.004     17 667 kbps     32 631 kbps     00:21:42.701    30 511 kbps     00:21:39.865    26 563 kbps     00:18:51.029    73 685 bytes    304 529 bytes   00:21:42.901
5               0:22:45.630     0:03:55.001     20 108 kbps     32 963 kbps     00:25:37.269    31 643 kbps     00:25:34.466    27 776 kbps     00:25:33.732    83 869 bytes    311 783 bytes   00:23:03.849
6               0:26:40.632     0:07:39.792     19 215 kbps     33 017 kbps     00:30:19.050    31 616 kbps     00:30:30.528    28 419 kbps     00:30:30.528    80 143 bytes    252 439 bytes   00:28:16.094
7               0:34:20.425     0:03:42.155     18 588 kbps     32 655 kbps     00:37:58.009    27 847 kbps     00:35:49.113    24 517 kbps     00:35:47.979    77 527 bytes    316 555 bytes   00:37:58.943
8               0:38:02.580     0:12:55.141     17 496 kbps     32 942 kbps     00:41:20.978    28 865 kbps     00:41:24.482    27 683 kbps     00:41:18.976    72 971 bytes    294 022 bytes   00:41:35.960
9               0:50:57.721     0:03:51.197     16 961 kbps     27 989 kbps     00:51:32.589    26 230 kbps     00:52:46.897    22 089 kbps     00:52:41.725    70 741 bytes    290 031 bytes   00:52:50.867
10              0:54:48.918     0:06:49.342     20 670 kbps     33 043 kbps     00:58:19.562    32 126 kbps     01:01:14.570    31 869 kbps     01:00:38.634    86 217 bytes    324 496 bytes   01:00:45.942
STREAM DIAGNOSTICS:
File            PID             Type            Codec           Language                Seconds                 Bitrate                 Bytes           Packets
----            ---             ----            -----           --------                --------------          --------------          -------------   -----
00004.M2TS      4113 (0x1011)   0x1B            AVC                                     3698,128                17 980                  8 311 630 885   45 236 598
00004.M2TS      4352 (0x1100)   0x80            LPCM            eng (English)           3698,128                2 310                   1 067 946 300   5 916 600
00004.M2TS      4353 (0x1101)   0x86            DTS-HD MA       eng (English)           3698,128                4 500                   2 080 183 644   11 881 620
[/code]
<---- END FORUMS PASTE ---->
QUICK SUMMARY:
Disc Title: BARKING DOGS 2
Disc Size: 45 255 320 160 bytes
Protection: AACS
BD-Java: No
Playlist: 00003.MPLS
Size: 12 126 474 240 bytes
Length: 1:01:38
Total Bitrate: 26,23 Mbps
Video: MPEG-4 AVC Video / 17980 kbps / 1080i / 29,970 fps / 16:9 / High Profile 4.1
Audio: English / LPCM Audio / 2.0 / 48 kHz / 2304 kbps / 24-bit
Audio: English / DTS-HD Master Audio / 5.1 / 48 kHz / 4500 kbps / 24-bit (DTS Core: 5.1 / 48 kHz / 1509 kbps / 24-bit)
********************
PLAYLIST: 00002.MPLS
********************
<--- BEGIN FORUMS PASTE --->

Код:

Total   Video
Title                                                           Codec   Length  Movie Size      Disc Size       Bitrate Bitrate Main Audio Track                          Secondary Audio Track
-----                                                           ------  ------- --------------  --------------  ------- ------- ------------------                        ---------------------
00002.MPLS                                                      AVC     1:01:09 12 040 169 472  45 255 320 160  26,25   17,99   LPCM 2.0 2304Kbps (48kHz/24-bit)          DTS-HD Master 5.1 4507Kbps (48kHz/24-bit)

Код:

DISC INFO:
Disc Title:     BARKING DOGS 2
Disc Size:      45 255 320 160 bytes
Protection:     AACS
BD-Java:        No
BDInfo:         0.5.6
PLAYLIST REPORT:
Name:                   00002.MPLS
Length:                 1:01:09 (h:m:s)
Size:                   12 040 169 472 bytes
Total Bitrate:          26,25 Mbps
VIDEO:
Codec                   Bitrate             Description
-----                   -------             -----------
MPEG-4 AVC Video        17990 kbps          1080i / 29,970 fps / 16:9 / High Profile 4.1
AUDIO:
Codec                           Language        Bitrate         Description
-----                           --------        -------         -----------
LPCM Audio                      English         2304 kbps       2.0 / 48 kHz / 2304 kbps / 24-bit
DTS-HD Master Audio             English         4507 kbps       5.1 / 48 kHz / 4507 kbps / 24-bit (DTS Core: 5.1 / 48 kHz / 1509 kbps / 24-bit)
FILES:
Name            Time In         Length          Size            Total Bitrate
----            -------         ------          ----            -------------
00003.M2TS      0:00:00.000     1:01:09.265     12 040 169 472  26 251
CHAPTERS:
Number          Time In         Length          Avg Video Rate  Max 1-Sec Rate  Max 1-Sec Time  Max 5-Sec Rate  Max 5-Sec Time  Max 10Sec Rate  Max 10S FRIENDS[/b]
HIP HOP CULTURAL CENTER OF HARLEM // 52'
[img]http://i40.fastpic.ru/big/2012/0728/3f/1232b6fadadf6c71c3346b189b3d6c3f.png[/img][/color][/size][/font][/align][/quote]
[hr]
[font="Trebuchet MS"][size=13][color=gray][b]Качество[/b]: Blu-ray
[b]Контейнер[/b]: BDMV
[b]Видео кодек[/b]: AVC
[b]Аудио кодек[/b]: DTS, PCM
[b]Видео[/b]: MPEG-4 AVC ~18000 kbps 1920*1080i / 29,970 fps / 16:9 / High Profile 4.1
[b]Аудио#1[/b]: English DTS-HD MA 5.1 / 48 kHz / ~4600 kbps / 24-bit (DTS Core: 5.1 / 48 kHz / 1509 kbps / 24-bit)
[b]Аудио#2[/b]: English LPCM Audio / 2.0 / 48 kHz / 2304 kbps / 24-bit[/color][/size][/font]
[hr]
[spoiler="BDInfo Disc 1"][pre]DISC INFO:
Disc Title:     BARKING DOGS 1
Disc Size:      47 178 806 996 bytes
Protection:     AACS
BD-Java:        No
BDInfo:         0.5.6
PLAYLIST REPORT:
Name:                   00001.MPLS
Length:                 1:06:18 (h:m:s)
Size:                   12 986 542 080 bytes
Total Bitrate:          26,11 Mbps
VIDEO:
Codec                   Bitrate             Description
-----                   -------             -----------
MPEG-4 AVC Video        17978 kbps          1080i / 29,970 fps / 16:9 / High Profile 4.1
AUDIO:
Codec                           Language        Bitrate         Description
-----                           --------        -------         -----------
LPCM Audio                      English         2304 kbps       2.0 / 48 kHz / 2304 kbps / 24-bit
DTS-HD Master Audio             English         4394 kbps       5.1 / 48 kHz / 4394 kbps / 24-bit (DTS Core: 5.1 / 48 kHz / 1509 kbps / 24-bit)
FILES:
Name            Time In         Length          Size            Total Bitrate
----            -------         ------          ----            -------------
00002.M2TS      0:00:00.000     1:06:09.165     12 972 447 744  26 146
00007.M2TS      1:06:09.165     0:00:09.175     14 094 336      12 288
CHAPTERS:
Number          Time In         Length          Avg Video Rate  Max 1-Sec Rate  Max 1-Sec Time  Max 5-Sec Rate  Max 5-Sec Time  Max 10Sec Rate  Max 10Sec Time  Avg Frame Size  Max Frame Size  Max Frame Time
------          -------         ------          --------------  --------------  --------------  --------------  --------------  --------------  --------------  --------------  --------------  --------------
1               0:00:00.000     0:50:18.281     18 152 kbps     33 176 kbps     00:00:29.429    30 984 kbps     00:00:29.329    29 611 kbps     00:35:01.532    75 707 bytes    332 340 bytes   00:00:29.796
2               0:50:18.281     0:16:00.059     17 434 kbps     32 907 kbps     01:05:09.272    32 092 kbps     01:05:09.405    31 676 kbps     01:05:29.558    72 715 bytes    325 731 bytes   01:06:14.170
STREAM DIAGNOSTICS:
File            PID             Type            Codec           Language                Seconds                 Bitrate                 Bytes           Packets
----            ---             ----            -----           --------                --------------          --------------          -------------   -----
00002.M2TS      4113 (0x1011)   0x1B            AVC                                     3969,098                17 993                  8 927 114 370   48 586 307
00002.M2TS      4352 (0x1100)   0x80            LPCM            eng (English)           3969,098                2 310                   1 146 175 000   6 350 000
00002.M2TS      4353 (0x1101)   0x86            DTS-HD MA       eng (English)           3969,098                4 405                   2 185 324 528   12 495 526
00007.M2TS      4113 (0x1011)   0x1B            AVC                                     9,042                   11 873                  13 420 427      73 088

ec Time  Avg Frame Size  Max Frame Size  Max Frame Time
------          -------         ------          --------------  --------------  --------------  --------------  --------------  --------------  --------------  --------------  --------------  --------------
1               0:00:00.000     0:05:45.611     17 050 kbps     33 177 kbps     00:00:31.297    30 957 kbps     00:00:28.595    28 253 kbps     00:00:27.827    71 106 bytes    417 910 bytes   00:00:28.895
2               0:05:45.611     0:03:30.276     20 106 kbps     31 207 kbps     00:08:31.777    27 964 kbps     00:06:58.251    26 190 kbps     00:08:31.777    83 858 bytes    322 985 bytes   00:07:02.255
3               0:09:15.888     0:04:21.527     18 104 kbps     27 383 kbps     00:10:47.446    25 988 kbps     00:10:44.443    24 201 kbps     00:10:43.142    75 508 bytes    317 748 bytes   00:10:48.214
4               0:13:37.416     0:06:02.462     13 729 kbps     29 053 kbps     00:18:59.271    22 612 kbps     00:18:59.238    20 059 kbps     00:18:59.238    57 262 bytes    249 543 bytes   00:19:01.039
5               0:19:39.878     0:03:50.296     17 707 kbps     32 499 kbps     00:21:28.820    24 575 kbps     00:21:43.402    22 462 kbps     00:22:48.100    73 851 bytes    297 306 bytes   00:22:54.606
6               0:23:30.175     0:06:23.082     17 515 kbps     28 243 kbps     00:27:00.318    24 930 kbps     00:25:44.709    22 827 kbps     00:25:44.175    73 050 bytes    292 379 bytes   00:29:29.234
7               0:29:53.258     0:04:15.255     18 675 kbps     32 758 kbps     00:30:31.196    27 307 kbps     00:30:37.969    23 470 kbps     00:31:30.121    77 889 bytes    241 842 bytes   00:31:31.155
8               0:34:08.513     0:06:53.579     16 869 kbps     27 934 kbps     00:37:44.228    24 890 kbps     00:35:14.378    22 413 kbps     00:39:47.418    70 360 bytes    256 586 bytes   00:35:17.348
9               0:41:02.092     0:04:33.106     19 712 kbps     30 355 kbps     00:43:46.090    26 151 kbps     00:41:53.978    23 619 kbps     00:44:00.738    82 215 bytes    264 500 bytes   00:41:54.011
10              0:45:35.199     0:08:20.099     19 105 kbps     32 727 kbps     00:49:22.526    26 384 kbps     00:52:23.607    25 598 kbps     00:49:22.526    79 682 bytes    309 905 bytes   00:49:23.460
11              0:53:55.298     0:07:13.966     20 068 kbps     32 444 kbps     01:00:40.737    31 991 kbps     01:00:37.800    31 349 kbps     01:00:34.864    83 706 bytes    345 004 bytes   01:00:13.109
STREAM DIAGNOSTICS:
File            PID             Type            Codec           Language                Seconds                 Bitrate                 Bytes           Packets
----            ---             ----            -----           --------                --------------          --------------          -------------   -----
00003.M2TS      4113 (0x1011)   0x1B            AVC                                     3669,132                17 990                  8 251 094 711   44 907 251
00003.M2TS      4352 (0x1100)   0x80            LPCM            eng (English)           3669,132                2 310                   1 059 682 288   5 870 816
00003.M2TS      4353 (0x1101)   0x86            DTS-HD MA       eng (English)           3669,132                4 508                   2 067 384 864   11 808 203
[/code]
<---- END FORUMS PASTE ---->
QUICK SUMMARY:
Disc Title: BARKING DOGS 2
Disc Size: 45 255 320 160 bytes
Protection: AACS
BD-Java: No
Playlist: 00002.MPLS
Size: 12 040 169 472 bytes
Length: 1:01:09
Total Bitrate: 26,25 Mbps
Video: MPEG-4 AVC Video / 17990 kbps / 1080i / 29,970 fps / 16:9 / High Profile 4.1
Audio: English / LPCM Audio / 2.0 / 48 kHz / 2304 kbps / 24-bit
Audio: English / DTS-HD Master Audio / 5.1 / 48 kHz / 4507 kbps / 24-bit (DTS Core: 5.1 / 48 kHz / 1509 kbps / 24-bit)
********************
PLAYLIST: 00001.MPLS
********************
<--- BEGIN FORUMS PASTE --->

Код:

Total   Video
Title                                                           Codec   Length  Movie Size      Disc Size       Bitrate Bitrate Main Audio Track                          Secondary Audio Track
-----                                                           ------  ------- --------------  --------------  ------- ------- ------------------                        ---------------------
00001.MPLS                                                      AVC     0:56:19 11 167 457 280  45 255 320 160  26,44   18,00   LPCM 2.0 2304Kbps (48kHz/24-bit)          DTS-HD Master 5.1 4679Kbps (48kHz/24-bit)

Код:

DISC INFO:
Disc Title:     BARKING DOGS 2
Disc Size:      45 255 320 160 bytes
Protection:     AACS
BD-Java:        No
BDInfo:         0.5.6
PLAYLIST REPORT:
Name:                   00001.MPLS
Length:                 0:56:19 (h:m:s)
Size:                   11 167 457 280 bytes
Total Bitrate:          26,44 Mbps
VIDEO:
Codec                   Bitrate             Description
-----                   -------             -----------
MPEG-4 AVC Video        17995 kbps          1080i / 29,970 fps / 16:9 / High Profile 4.1
AUDIO:
Codec                           Language        Bitrate         Description
-----                           --------        -------         -----------
LPCM Audio                      German          2304 kbps       2.0 / 48 kHz / 2304 kbps / 24-bit
DTS-HD Master Audio             German          4679 kbps       5.1 / 48 kHz / 4679 kbps / 24-bit (DTS Core: 5.1 / 48 kHz / 1509 kbps / 24-bit)
FILES:
Name            Time In         Length          Size            Total Bitrate
----            -------         ------          ----            -------------
00002.M2TS      0:00:00.000     0:56:19.576     11 167 457 280  26 435
CHAPTERS:
Number          Time In         Length          Avg Video Rate  Max 1-Sec Rate  Max 1-Sec Time  Max 5-Sec Rate  Max 5-Sec Time  Max 10Sec Rate  Max 10Sec Time  Avg Frame Size  Max Frame Size  Max Frame Time
------          -------         ------          --------------  --------------  --------------  --------------  --------------  --------------  --------------  --------------  --------------  --------------
1               0:00:00.000     0:15:16.582     18 891 kbps     32 574 kbps     00:00:27.594    30 750 kbps     00:00:27.227    30 241 kbps     00:00:24.391    78 788 bytes    414 055 bytes   00:00:25.859
2               0:15:16.582     0:17:54.273     17 084 kbps     26 891 kbps     00:17:37.589    24 790 kbps     00:17:34.787    22 848 kbps     00:27:28.747    71 255 bytes    277 148 bytes   00:19:20.826
3               0:33:10.855     0:07:03.890     18 069 kbps     28 682 kbps     00:39:18.489    23 480 kbps     00:36:21.579    22 544 kbps     00:35:51.182    75 364 bytes    251 985 bytes   00:36:22.180
4               0:40:14.745     0:16:04.830     18 126 kbps     32 483 kbps     00:55:24.187    32 069 kbps     00:55:56.052    31 727 kbps     00:55:51.214    75 605 bytes    330 331 bytes   00:55:21.651
STREAM DIAGNOSTICS:
File            PID             Type            Codec           Language                Seconds                 Bitrate                 Bytes           Packets
----            ---             ----            -----           --------                --------------          --------------          -------------   -----
00002.M2TS      4113 (0x1011)   0x1B            AVC                                     3379,443                17 996                  7 602 059 965   41 374 768
00002.M2TS      4352 (0x1100)   0x80            LPCM            deu (German)            3379,443                2 310                   975 810 436     5 406 152
00002.M2TS      4353 (0x1101)   0x86            DTS-HD MA       deu (German)            3379,443                4 679                   1 976 650 008   11 269 644

<---- END FORUMS PASTE ---->
QUICK SUMMARY:
Disc Title: BARKING DOGS 2
Disc Size: 45 255 320 160 bytes
Protection: AACS
BD-Java: No
Playlist: 00001.MPLS
Size: 11 167 457 280 bytes
Length: 0:56:19
Total Bitrate: 26,44 Mbps
Video: MPEG-4 AVC Video / 17995 kbps / 1080i / 29,970 fps / 16:9 / High Profile 4.1
Audio: German / LPCM Audio / 2.0 / 48 kHz / 2304 kbps / 24-bit
Audio: German / DTS-HD Master Audio / 5.1 / 48 kHz / 4679 kbps / 24-bit (DTS Core: 5.1 / 48 kHz / 1509 kbps / 24-bit)
********************
PLAYLIST: 00004.MPLS
********************
<--- BEGIN FORUMS PASTE --->

Код:

Total   Video
Title                                                           Codec   Length  Movie Size      Disc Size       Bitrate Bitrate Main Audio Track                          Secondary Audio Track
-----                                                           ------  ------- --------------  --------------  ------- ------- ------------------                        ---------------------
00004.MPLS                                                      AVC     0:49:25 9 797 621 760   45 255 320 160  26,43   17,99   LPCM 2.0 2304Kbps (48kHz/24-bit)          DTS-HD Master 5.1 4686Kbps (48kHz/24-bit)

Код:

DISC INFO:
Disc Title:     BARKING DOGS 2
Disc Size:      45 255 320 160 bytes
Protection:     AACS
BD-Java:        No
BDInfo:         0.5.6
PLAYLIST REPORT:
Name:                   00004.MPLS
Length:                 0:49:25 (h:m:s)
Size:                   9 797 621 760 bytes
Total Bitrate:          26,43 Mbps
VIDEO:
Codec                   Bitrate             Description
-----                   -------             -----------
MPEG-4 AVC Video        17987 kbps          1080i / 29,970 fps / 16:9 / High Profile 4.1
AUDIO:
Codec                           Language        Bitrate         Description
-----                           --------        -------         -----------
LPCM Audio                      German          2304 kbps       2.0 / 48 kHz / 2304 kbps / 24-bit
DTS-HD Master Audio             German          4686 kbps       5.1 / 48 kHz / 4686 kbps / 24-bit (DTS Core: 5.1 / 48 kHz / 1509 kbps / 24-bit)
FILES:
Name            Time In         Length          Size            Total Bitrate
----            -------         ------          ----            -------------
00005.M2TS      0:00:00.000     0:49:25.429     9 797 621 760   26 432
CHAPTERS:
Number          Time In         Length          Avg Video Rate  Max 1-Sec Rate  Max 1-Sec Time  Max 5-Sec Rate  Max 5-Sec Time  Max 10Sec Rate  Max 10Sec Time  Avg Frame Size  Max Frame Size  Max Frame Time
------          -------         ------          --------------  --------------  --------------  --------------  --------------  --------------  --------------  --------------  --------------  --------------
1               0:00:00.000     0:08:22.368     16 804 kbps     29 084 kbps     00:07:23.476    24 401 kbps     00:06:34.827    22 097 kbps     00:06:30.022    70 083 bytes    288 575 bytes   00:02:37.891
2               0:08:22.368     0:09:26.766     18 052 kbps     29 334 kbps     00:16:06.765    25 856 kbps     00:16:59.685    22 968 kbps     00:15:58.657    75 290 bytes    272 029 bytes   00:15:58.957
3               0:17:49.134     0:10:41.240     18 088 kbps     31 505 kbps     00:24:36.341    26 163 kbps     00:24:33.338    23 406 kbps     00:24:33.738    75 443 bytes    288 054 bytes   00:26:41.132
4               0:28:30.375     0:07:34.453     17 913 kbps     31 371 kbps     00:35:22.186    23 829 kbps     00:34:40.211    22 915 kbps     00:35:43.207    74 713 bytes    288 716 bytes   00:35:52.316
5               0:36:04.829     0:13:20.599     18 644 kbps     40 270 kbps     00:49:02.939    39 138 kbps     00:49:00.937    36 482 kbps     00:48:58.201    77 765 bytes    384 169 bytes   00:49:03.473
STREAM DIAGNOSTICS:
File            PID             Type            Codec           Language                Seconds                 Bitrate                 Bytes           Packets
----            ---             ----            -----           --------                --------------          --------------          -------------   -----
00005.M2TS      4113 (0x1011)   0x1B            AVC                                     2965,296                17 988                  6 667 379 046   36 287 512
00005.M2TS      4352 (0x1100)   0x80            LPCM            deu (German)            2965,296                2 308                   855 588 772     4 740 104
00005.M2TS      4353 (0x1101)   0x86            DTS-HD MA       deu (German)            2965,296                4 686                   1 736 960 360   9 902 238

<---- END FORUMS PASTE ---->
QUICK SUMMARY:
Disc Title: BARKING DOGS 2
Disc Size: 45 255 320 160 bytes
Protection: AACS
BD-Java: No
Playlist: 00004.MPLS
Size: 9 797 621 760 bytes
Length: 0:49:25
Total Bitrate: 26,43 Mbps
Video: MPEG-4 AVC Video / 17987 kbps / 1080i / 29,970 fps / 16:9 / High Profile 4.1
Audio: German / LPCM Audio / 2.0 / 48 kHz / 2304 kbps / 24-bit
Audio: German / DTS-HD Master Audio / 5.1 / 48 kHz / 4686 kbps / 24-bit (DTS Core: 5.1 / 48 kHz / 1509 kbps / 24-bit)
Скриншоты видео
2008 JazzMix - 8 Jazz Concerts - 8 Films Live in NYC [2 Blu-ray] 02008 JazzMix - 8 Jazz Concerts - 8 Films Live in NYC [2 Blu-ray] 12008 JazzMix - 8 Jazz Concerts - 8 Films Live in NYC [2 Blu-ray] 22008 JazzMix - 8 Jazz Concerts - 8 Films Live in NYC [2 Blu-ray] 32008 JazzMix - 8 Jazz Concerts - 8 Films Live in NYC [2 Blu-ray] 42008 JazzMix - 8 Jazz Concerts - 8 Films Live in NYC [2 Blu-ray] 52008 JazzMix - 8 Jazz Concerts - 8 Films Live in NYC [2 Blu-ray] 62008 JazzMix - 8 Jazz Concerts - 8 Films Live in NYC [2 Blu-ray] 72008 JazzMix - 8 Jazz Concerts - 8 Films Live in NYC [2 Blu-ray] 82008 JazzMix - 8 Jazz Concerts - 8 Films Live in NYC [2 Blu-ray] 92008 JazzMix - 8 Jazz Concerts - 8 Films Live in NYC [2 Blu-ray] 102008 JazzMix - 8 Jazz Concerts - 8 Films Live in NYC [2 Blu-ray] 112008 JazzMix - 8 Jazz Concerts - 8 Films Live in NYC [2 Blu-ray] 12
Приватный:
Нет (DHT включён)
Размер:
86.09 Гб (92,434,127,156 байт) » файлов: 77
Участники:
9 раздают, 0 качают (9 участников всего)
Внешние участники:
7 раздают, 2 качают (9 участников всего) [ Обновить ]
Никого нет на раздаче - пишите ЛС M0p94ok
No seeders - write PM to M0p94ok
79
17:56