Поиск

2022 Golden Dawn Arkestra - at Elbjazz Fest [WEB-DL 720p]

2022 Golden Dawn Arkestra - at Elbjazz Fest [WEB-DL 720p]
Дата проведения концерта (записи):
4 июня 2022
Место проведения:
Hamburg, Germany
Главы (разбивка по трекам):
нет
Качество:
WEB-DL
Контейнер:
MP4
Видео:
AVC (h.264) / 1280*720p / 16x9 / 2 200Mbps / 25fps
Аудио#1:
AAC / 256kbps / 48kHz / 2ch stereo
Описание:

Легенда гласит, что основатель Golden Dawn Arkestra Запот Мгвана никогда не знал своего отца, а мать всегда говорила ему, что это Герман Пул Блаунт, он же Sun Ra. Неудивительно, что музыка мнимого сына не отходит от космических миров последнего: Мгвана не только позаимствовал у Sun Ra название Arkestra, состоящее из слов ark и orchestra, но и утверждает, что излучает "межзвездные вибрации для детей Солнца". "Группа" — это неадекватное описание для этого авангардного коллектива, который всегда одет в сияющие, царственные одежды — и они решительно отвергают любую жанровую категоризацию, отрывисто указывая категорию "Другое".

Все, что может ожидать слушатель, — это поле экспериментов с межгалактическим диско-фанком, психоделическим соулом и роковым афробитом, движимое глубоким грувом, наложенным на кинематографические текстуры и завершенное гулким космическим эхом, с целью помочь сознанию слушателей выйти за пределы космоса.

Отчёт DVDInfo/MediaInfo/BDInfo
Общее
Полное имя : \\Golden Dawn Arkestra\2022 Golden Dawn Arkestra - at Elbjazz Fest [WEBDL 720p].mp4
Формат : MPEG-4
Профиль формата : Base Media
Идентификатор кодека : isom (isom/iso2/avc1/mp41)
Размер файла : 1,08 Гбайт
Продолжительность : 1 ч. 2 м.
Режим общего битрейта : Переменный
Общий поток : 2 460 Кбит/сек
Программа кодирования : VideoReDo (Lavf58.29.100)

Видео
Идентификатор : 1
Формат : AVC
Формат/Информация : Advanced Video Codec
Профиль формата : Main@L3.1
Настройки формата : CABAC / 3 Ref Frames
Параметр CABAC формата : Да
Параметр RefFrames формата : 3 кадра
Параметр GOP формата : M=4, N=50
Идентификатор кодека : avc1
Идентификатор кодека/Информация : Advanced Video Coding
Продолжительность : 1 ч. 2 м.
Вид битрейта : Переменный
Битрейт : 2 200 Кбит/сек
Номинальный битрейт : 1 905 Кбит/сек
Ширина : 1 280 пикселей
Высота : 720 пикселей
Соотношение сторон : 16:9
Режим частоты кадров : Постоянный
Частота кадров : 25,000 кадров/сек
Стандарт вещания : PAL
Цветовое пространство : YUV
Субдискретизация насыщенности : 4:2:0
Битовая глубина : 8 бит
Тип развёртки : Прогрессивная
Бит/(Пиксели*Кадры) : 0.095
Размер потока : 982 Мбайт (89%)
Библиотека кодирования : x264 core 160 r3000
Настройки программы : cabac=1 / ref=3 / deblock=1:0:0 / analyse=0x1:0x111 / me=hex / subme=4 / psy=1 / psy_rd=1.00:0.00 / mixed_ref=0 / me_range=16 / chroma_me=1 / trellis=1 / 8x8dct=0 / cqm=0 / deadzone=21,11 / fast_pskip=1 / chroma_qp_offset=1 / threads=12 / lookahead_threads=3 / sliced_threads=0 / nr=0 / decimate=1 / interlaced=tff / bluray_compat=0 / constrained_intra=0 / bframes=3 / b_pyramid=2 / b_adapt=1 / b_bias=0 / direct=1 / weightb=1 / open_gop=0 / weightp=0 / keyint=50 / keyint_min=5 / scenecut=0 / intra_refresh=0 / rc_lookahead=20 / rc=abr / mbtree=1 / bitrate=1905 / ratetol=1.0 / qcomp=0.60 / qpmin=0 / qpmax=69 / qpstep=4 / vbv_maxrate=2199 / vbv_bufsize=4400 / nal_hrd=none / filler=0 / ip_ratio=1.40 / aq=1:1.00
Цветовой диапазон : Limited
Основные цвета : BT.709
Характеристики трансфера : BT.709
Коэффициенты матрицы : BT.709
Menus : 3
Codec configuration box : avcC

Аудио
Идентификатор : 2
Формат : AAC LC
Формат/Информация : Advanced Audio Codec Low Complexity
Идентификатор кодека : mp4a-40-2
Продолжительность : 1 ч. 2 м.
Duration_LastFrame : -21 мс.
Вид битрейта : Переменный
Битрейт : 253 Кбит/сек
Максимальный битрейт : 256 Кбит/сек
Каналы : 2 канала
Channel layout : L R
Частота : 48,0 КГц
Частота кадров : 46,875 кадров/сек (1024 SPF)
Метод сжатия : С потерями
Размер потока : 113 Мбайт (10%)
Default : Да
Alternate group : 1
Menus : 3

Меню #1
Идентификатор : 3
Формат : txet
Идентификатор кодека : txet
Продолжительность : 1 ч. 2 м.
Язык : English
Menu For : 1,2
Duration_LastFrame : -143560

Меню #2
00:00:00.000 : Chapter 1
00:05:00.000 : Chapter 2
00:10:00.000 : Chapter 3
00:15:00.000 : Chapter 4
00:20:00.000 : Chapter 5
00:25:00.000 : Chapter 6
00:30:00.000 : Chapter 7
00:35:00.000 : Chapter 8
00:40:00.000 : Chapter 9
00:45:00.000 : Chapter 10
00:50:00.000 : Chapter 11
00:55:00.000 : Chapter 12
01:00:00.000 : Chapter 13
По всем вопросам пишите личное сообщение пользователю M0p94ok.
97
Нет комментариев. Ваш будет первым!