Поиск

2021 Eydís Evensen - at ARTE Concert Festival [WEB-DL 720p].mp4

2021 Eydís Evensen - at ARTE Concert Festival [WEB-DL 720p].mp4
Дата проведения концерта (записи):
06 ноября 2021
Место проведения:
Gaité Lyrique, Paris, France
Главы (разбивка по трекам):
нет
Качество:
WEB-DL
Контейнер:
MP4
Состав:
  • Eydís Evensen - piano
Видео:
AVC (h.264) / 1280*720p / 16x9 / 2 200kbps / 25fps
Аудио#1:
AAC LC / 125-150kbps / 48kHz / 2ch stereo
Описание:

Исландская пианистка и композитор Эйдис Эвенсен исполняет композиции из своего дебютного альбома в театре Gaité Lyrique в Париже в рамках концертного фестиваля ARTE.

Отчёт DVDInfo/MediaInfo/BDInfo
Общее
Полное имя : \\Eydis Evensen\2021 Eydís Evensen - at ARTE Concert Festival.mp4
Формат : MPEG-4
Профиль формата : Base Media / Version 2
Идентификатор кодека : mp42 (isom/mp42)
Размер файла : 782 Мбайт
Продолжительность : 49 м. 16 с.
Режим общего битрейта : Переменный
Общий поток : 2 218 Кбит/сек
Дата кодирования : UTC 2021-11-06 11:06:15
Дата пометки : UTC 2021-11-06 11:06:15

Видео
Идентификатор : 1
Формат : AVC
Формат/Информация : Advanced Video Codec
Профиль формата : Main@L3.1
Настройки формата : CABAC / 3 Ref Frames
Параметр CABAC формата : Да
Параметр RefFrames формата : 3 кадра
Идентификатор кодека : avc1
Идентификатор кодека/Информация : Advanced Video Coding
Продолжительность : 49 м. 16 с.
Вид битрейта : Переменный
Битрейт : 2 089 Кбит/сек
Максимальный битрейт : 2 200 Кбит/сек
Ширина : 1 280 пикселей
Высота : 720 пикселей
Соотношение сторон : 16:9
Режим частоты кадров : Постоянный
Частота кадров : 25,000 кадров/сек
Стандарт вещания : PAL
Цветовое пространство : YUV
Субдискретизация насыщенности : 4:2:0
Битовая глубина : 8 бит
Тип развёртки : Прогрессивная
Бит/(Пиксели*Кадры) : 0.091
Размер потока : 736 Мбайт (94%)
Дата кодирования : UTC 2021-11-06 11:06:17
Дата пометки : UTC 2021-11-06 11:06:17
Цветовой диапазон : Limited
Основные цвета : BT.709
Характеристики трансфера : BT.709
Коэффициенты матрицы : BT.709
Codec configuration box : avcC

Аудио
Идентификатор : 2
Формат : AAC LC
Формат/Информация : Advanced Audio Codec Low Complexity
Идентификатор кодека : mp4a-40-2
Продолжительность : 49 м. 16 с.
Вид битрейта : Переменный
Битрейт : 125 Кбит/сек
Максимальный битрейт : 150 Кбит/сек
Каналы : 2 канала
Channel layout : L R
Частота : 48,0 КГц
Частота кадров : 46,875 кадров/сек (1024 SPF)
Метод сжатия : С потерями
Размер потока : 44,2 Мбайт (6%)
Дата кодирования : UTC 2021-11-06 11:06:17
Дата пометки : UTC 2021-11-06 11:06:17
По всем вопросам пишите личное сообщение пользователю M0p94ok.
97
Нет комментариев. Ваш будет первым!