Вы используете незарегистрированную версию компонента "Вкладки"!

Поиск

2013 Cyrus Chestnut Trio ft. Piero Odorici - Live a jazz a Foix [HDTV 1080p]

2013 Cyrus Chestnut Trio ft. Piero Odorici - Live a jazz a Foix [HDTV 1080p]
Стиль:
Время звучания:
00:58:13
Главы (разбивка по трекам):
нет
Качество:
HDTV
Контейнер:
MP4
Состав:
  • Cyrus Chestnut - piano
  • Piero Odorici - sax
  • Darryl Hall - bass
  • Willie Jones III - drums
Треклист:

1. No Problem
2. Indigo Blue
3. In search of a quiet place
4. The Swan Lake

Видео:
1920x1080 (16:9), 25.00 fps, AVC, 9057 Кбит, 0.175 bits/pixel
Аудио#1:
48.0 KHz, AAC-LC, 2 ch, stereo, 128-384 Kbps VBR
Отчёт DVDInfo/MediaInfo/BDInfo
Полное имя : G:\DVD\Cyrus Chestnut Trio - LaJaF 2013\Cyrus Chestnut Trio - Live a Jazz a Foix 2013.mp4
Формат : MPEG-4
Профиль формата : Base Media / Version 2
Идентификатор кодека : mp42
Размер файла : 3,84 Гбайт
Продолжительность : 58 м.
Общий поток : 9445 Кбит/сек
Дата кодирования : UTC 2013-12-16 08:27:20
Дата пометки : UTC 2013-12-16 08:27:20
Видео
Идентификатор : 2
Формат : AVC
Формат/Информация : Advanced Video Codec
Профиль формата : Main@L4.0
Параметр CABAC формата : Да
Параметр ReFrames формата : 2 кадра
Идентификатор кодека : avc1
Идентификатор кодека/Информация : Advanced Video Coding
Продолжительность : 58 м.
Вид битрейта : Переменный
Битрейт : 9057 Кбит/сек
Максимальный битрейт : 9001 Кбит/сек
Ширина : 1920 пикселей
Высота : 1088 пикселей
Высота оригинала : 1080 пикселей
Соотношение сторон : 16:9
Соотношение сторон в оригинале : 16:9
Режим частоты кадров : Постоянный
Частота кадров : 25,000 кадров/сек
Частота кадров в оригинале : 12,500 кадров/сек
Цветовое пространство : YUV
Субдискретизация насыщенности : 4:2:0
Битовая глубина : 8 бит
Тип развёртки : Прогрессивная
Бит/(Пиксели*Кадры) : 0.173
Размер потока : 3,68 Гбайт (96%)
Язык : English
Дата кодирования : UTC 2013-12-16 08:27:20
Дата пометки : UTC 2013-12-16 08:27:20
Аудио
Идентификатор : 1
Формат : AAC
Формат/Информация : Advanced Audio Codec
Профиль формата : LC
Идентификатор кодека : 40
Продолжительность : 58 м.
Вид битрейта : Постоянный
Битрейт : 384 Кбит/сек
Номинальный битрейт : 128 Кбит/сек
Каналы : 2 канала
Расположение каналов : Front: L R
Частота : 48,0 КГц
Метод сжатия : С потерями
Размер потока : 160 Мбайт (4%)
Язык : English
Дата кодирования : UTC 2013-12-16 08:27:20
Дата пометки : UTC 2013-12-16 08:27:20
Any questions - support@pro-jazz.com.
Есть вопросы - support@pro-jazz.com
86
Нет комментариев. Ваш будет первым!