Вы используете незарегистрированную версию компонента "Вкладки"!

Поиск

2006 Legends of Jazz with Ramsey Lewis - The Killer B's (with Joey DeFrancesco & Dr. Lonnie Smith) [HDTV 1080p]

2006 Legends of Jazz with Ramsey Lewis - The Killer B's (with Joey DeFrancesco & Dr. Lonnie Smith) [HDTV 1080p]
Стиль:
Время звучания:
00:24:33
Главы (разбивка по трекам):
нет
Качество:
HDTV
Контейнер:
MP4
Состав:
  • Ramsey Lewis
  • Joey DeFrancesco
  • Dr. Lonnie Smith
Треклист:

1. Caravan
2. Blues for Bobby C
3. Some Day My Prince Will Come
4. Little Jam

Видео:
1920x1080 (16:9), 25.00 fps, AVC, 8782 Кбит, 0.168 bits/pixel
Аудио#1:
48.0 KHz, AAC-LC, 2 ch, stereo, 128-384 Kbps VBR
Описание:

Джазовый органист, Джоуи ДеФранческо рассказывает о своих отношениях с B-3 и с самым известным сторонником этого инструмента, покойным великим Джимми Смитом. Доктор Лонни Смит, гигант B-3 с 1960-х годов, обсуждает те легендарные дни, а оба артиста говорят о том, какую роль они сыграли в нынешнем глобальном возрождении "Killer B".
Это 12-й выпуск Первого Сезона.

Отчёт DVDInfo/MediaInfo/BDInfo
Полное имя : G:\DVD\Legends of Jazz (2006-1-12)\Legends of Jazz with Ramsey Lewis - The Killer Bs with Joey DeFrancesco & Dr. Lonnie Smith.mp4
Формат : MPEG-4
Профиль формата : Base Media / Version 2
Идентификатор кодека : mp42
Размер файла : 1,57 Гбайт
Продолжительность : 24 м.
Общий поток : 9169 Кбит/сек
Дата кодирования : UTC 2013-12-13 12:30:16
Дата пометки : UTC 2013-12-13 12:30:16
Видео
Идентификатор : 2
Формат : AVC
Формат/Информация : Advanced Video Codec
Профиль формата : Main@L4.0
Параметр CABAC формата : Да
Параметр ReFrames формата : 2 кадра
Идентификатор кодека : avc1
Идентификатор кодека/Информация : Advanced Video Coding
Продолжительность : 24 м.
Вид битрейта : Переменный
Битрейт : 8782 Кбит/сек
Максимальный битрейт : 9001 Кбит/сек
Ширина : 1920 пикселей
Высота : 1088 пикселей
Высота оригинала : 1080 пикселей
Соотношение сторон : 16:9
Соотношение сторон в оригинале : 16:9
Режим частоты кадров : Постоянный
Частота кадров : 25,000 кадров/сек
Частота кадров в оригинале : 12,500 кадров/сек
Цветовое пространство : YUV
Субдискретизация насыщенности : 4:2:0
Битовая глубина : 8 бит
Тип развёртки : Прогрессивная
Бит/(Пиксели*Кадры) : 0.168
Размер потока : 1,51 Гбайт (96%)
Язык : English
Дата кодирования : UTC 2013-12-13 12:30:16
Дата пометки : UTC 2013-12-13 12:30:16
Аудио
Идентификатор : 1
Формат : AAC
Формат/Информация : Advanced Audio Codec
Профиль формата : LC
Идентификатор кодека : 40
Продолжительность : 24 м.
Вид битрейта : Постоянный
Битрейт : 384 Кбит/сек
Номинальный битрейт : 128 Кбит/сек
Каналы : 2 канала
Расположение каналов : Front: L R
Частота : 48,0 КГц
Метод сжатия : С потерями
Размер потока : 67,4 Мбайт (4%)
Язык : English
Дата кодирования : UTC 2013-12-13 12:30:16
Дата пометки : UTC 2013-12-13 12:30:16
Any questions - support@pro-jazz.com.
Есть вопросы - support@pro-jazz.com
110
Нет комментариев. Ваш будет первым!