Поиск

2006 Legends of Jazz with Ramsey Lewis - The Great Guitars with Pat Metheny & Jim Hall (Season 1, ep. 3) [HDTV 1080p]

2006 Legends of Jazz with Ramsey Lewis - The Great Guitars with Pat Metheny & Jim Hall (Season 1, ep. 3) [HDTV 1080p]
Время звучания:
00:24:33
Главы (разбивка по трекам):
нет
Качество:
HDTV
Контейнер:
MP4
Состав:
  • Pat Metheny - guitar
  • Jim Hall - guitar
  • Christian McBride - bass
  • Antonio Sanchez - drums
Треклист:

1. My Funny Valentine
2. So May It Secretly Begin
3. All The Things You Are
4. Jam

Видео:
1920x1080 (16:9), 25.00 fps, AVC, 8972 Кбит, 0.172 bits/pixel
Аудио#1:
48.0 KHz, AAC-LC, 2 ch, stereo, 128-384 Kbps VBR
Описание:

В гитарном эпизоде Джим Холл играет с Пэтом Метини, и это, пожалуй, лучшая серия. Идея, как правило, заключается в том, чтобы объединить старшего мастера с молодым. (Мистеру Холлу 75 лет, мистеру Метени — 51.) Мягкий на вид мистер Холл достаточно смел, чтобы высказать реальные мысли: сначала он заявляет, что не испытывает ностальгии по прошлому, затем вскользь упоминает, что Бен Вебстер научил его дышать через гитару, как саксофонист. И бац! начинается монтаж. (Джаз — это такая мозговая тема, знаете ли. Это пугает людей.) Но выступления обоих музыкантов стоит посмотреть. Чувствуется, что они вкапываются, а г-н Метени привел свое обычное трио с басистом Кристианом Макбрайдом и барабанщиком Антонио Санчесом.

Это 3-й выпуск Первого Сезона.

Отчёт DVDInfo/MediaInfo/BDInfo
Полное имя : G:\DVD\Legends of Jazz (2006-1-3)\Legends of Jazz with Ramsey Lewis - The Great Guitars.mp4
Формат : MPEG-4
Профиль формата : Base Media / Version 2
Идентификатор кодека : mp42
Размер файла : 1,61 Гбайт
Продолжительность : 24 м.
Общий поток : 9358 Кбит/сек
Дата кодирования : UTC 2013-12-19 09:43:38
Дата пометки : UTC 2013-12-19 09:43:38
Видео
Идентификатор : 2
Формат : AVC
Формат/Информация : Advanced Video Codec
Профиль формата : Main@L4.0
Параметр CABAC формата : Да
Параметр ReFrames формата : 2 кадра
Идентификатор кодека : avc1
Идентификатор кодека/Информация : Advanced Video Coding
Продолжительность : 24 м.
Вид битрейта : Переменный
Битрейт : 8972 Кбит/сек
Максимальный битрейт : 9001 Кбит/сек
Ширина : 1920 пикселей
Высота : 1088 пикселей
Высота оригинала : 1080 пикселей
Соотношение сторон : 16:9
Соотношение сторон в оригинале : 16:9
Режим частоты кадров : Постоянный
Частота кадров : 25,000 кадров/сек
Частота кадров в оригинале : 12,500 кадров/сек
Цветовое пространство : YUV
Субдискретизация насыщенности : 4:2:0
Битовая глубина : 8 бит
Тип развёртки : Прогрессивная
Бит/(Пиксели*Кадры) : 0.172
Размер потока : 1,54 Гбайт (96%)
Язык : English
Дата кодирования : UTC 2013-12-19 09:43:38
Дата пометки : UTC 2013-12-19 09:43:38
Аудио
Идентификатор : 1
Формат : AAC
Формат/Информация : Advanced Audio Codec
Профиль формата : LC
Идентификатор кодека : 40
Продолжительность : 24 м.
Вид битрейта : Постоянный
Битрейт : 384 Кбит/сек
Номинальный битрейт : 128 Кбит/сек
Каналы : 2 канала
Расположение каналов : Front: L R
Частота : 48,0 КГц
Метод сжатия : С потерями
Размер потока : 67,4 Мбайт (4%)
Язык : English
Дата кодирования : UTC 2013-12-19 09:43:38
Дата пометки : UTC 2013-12-19 09:43:38
По всем вопросам пишите личное сообщение пользователю M0p94ok.
40
Нет комментариев. Ваш будет первым!