Вы используете незарегистрированную версию компонента "Вкладки"!

Поиск

2011 Giovanni Mirabassi Trio - Jazz sous les Pommiers [HDTV 1080i]

2011 Giovanni Mirabassi Trio - Jazz sous les Pommiers [HDTV 1080i]
Состав:
  • Giovanni Mirabassi – рояль,
  • Gianluca Renzi – контрабас,
  • Lukmil Perez – барабаны

Жанр: Jazz
Продолжительность: 56min 50 sec
Год выпуска: 2011

Качество: HDTV
Контейнер: TS
Видео кодек: H.264
Аудио кодек: MP2
Видео: High@L4.0 AVC Bit rate : 6 876 Kbps 1440x1080 16/9 25.000 fps
Аудио: MPEG Audio 256 Kbps 2 channels Constant 48.0 KHz

Описание:

Выступление на фестивале джазовой музыки Jazz sous les Pommiers, 01 июня 2011, записано на DM7020HD PVR (ruDREAM Line X).

Отчёт DVDInfo/MediaInfo/BDInfo
Общее
Идентификатор : 5800 (0x16A8)
Полное имя : \\NASF8F4EB\Videos\HD Video\Giovanni Mirabassi\2011 Giovanni Mirabassi Trio - Jazz sous les Pommiers\Giovanni Mirabassi Trio - Jazz sous les Pommiers 2011.ts
Формат : MPEG-TS
Размер файла : 2,73 Гбайт
Продолжительность : 56 м. 50 с.
Режим общего битрейта : Переменный
Общий поток : 6867 Кбит/сек

Видео
Идентификатор : 2007 (0x7D7)
Идентификатор меню : 3507 (0xDB3)
Формат : AVC
Формат/Информация : Advanced Video Codec
Профиль формата : High@L4
Настройки формата : CABAC / 2 Ref Frames
Параметр CABAC формата : Да
Параметр RefFrames формата : 2 кадра
Параметр GOP формата : M=3, N=30
Идентификатор кодека : 27
Продолжительность : 56 м. 50 с.
Вид битрейта : Переменный
Битрейт : 6269 Кбит/сек
Максимальный битрейт : 6400 Кбит/сек
Ширина : 1440 пикселей
Высота : 1080 пикселей
Соотношение сторон : 16:9
Частота кадров : 25,000 кадров/сек
Цветовое пространство : YUV
Субдискретизация насыщенности : 4:2:0
Битовая глубина : 8 бит
Тип развёртки : MBAFF
Метод сохранения типа развёртки : Чередующиеся поля
Порядок развёртки : Верхнее поле первое
Бит/(Пиксели*Кадры) : 0.161
Размер потока : 2,49 Гбайт (91%)
Цветовой диапазон : Limited
Основные цвета : BT.709
Характеристики трансфера : BT.709
Коэффициенты матрицы : BT.709

Аудио
Идентификатор : 3007 (0xBBF)
Идентификатор меню : 3507 (0xDB3)
Формат : MPEG Audio
Версия формата : Version 1
Профиль формата : Layer 2
Идентификатор кодека : 3
Продолжительность : 56 м. 50 с.
Вид битрейта : Постоянный
Битрейт : 256 Кбит/сек
Каналы : 2 канала
Частота : 48,0 КГц
Частота кадров : 41,667 кадра/сек (1152 SPF)
Метод сжатия : С потерями
Задержка видео : -1 с. 176 мс.
Размер потока : 104 Мбайт (4%)

Меню
Идентификатор : 1007 (0x3EF)
Идентификатор меню : 3507 (0xDB3)
Продолжительность : 56 м. 50 с.
Список : 2007 (0x7D7) (AVC) / 3007 (0xBBF) (MPEG Audio)
Any questions - support@pro-jazz.com. Есть вопросы - support@pro-jazz.com
202
Нет комментариев. Ваш будет первым!