Вы используете незарегистрированную версию компонента "Вкладки"!

Поиск

2011 Tom Harrell Quintet - Junas Jazz Festival [HDTV 1080i]

2011 Tom Harrell Quintet - Junas Jazz Festival [HDTV 1080i]
Состав:
  • Tom HАRRELL
  • Wayne ESCOFFERY
  • Ugoma OKEWGO
  • Danny GRISETT
  • Jonathan BLAKE

Жанр: Jazz
Продолжительность: 61 min
Год выпуска: 2011

Качество: HDTV
Контейнер: TS
Видео кодек: H.264
Аудио кодек: MP2
Видео: High@L4.0 AVC Bit rate : 4 959 Kbps 1440x1080 16/9 25.000 fps
Аудио: MPEG Audio 256 Kbps 2 channels Constant 48.0 KHz

Описание:

Выступление на фестивале джазовой музыки Junas Jazz Festival 21/07/2011, записано на DM7020HD PVR (ruDREAM Line X).

Отчёт DVDInfo/MediaInfo/BDInfo
Общее
Идентификатор : 3226 (0xC9A)
Полное имя : \\NASF8F4EB\Videos\HD Video\Tom Harrell\2011 Tom Harrell Quintet - Junas Jazz Festival\Tom Harrel Quintet - Junas Jazz Festival 2011.ts
Формат : MPEG-TS
Размер файла : 2,13 Гбайт
Продолжительность : 1 ч. 1 м.
Режим общего битрейта : Переменный
Общий поток : 4959 Кбит/сек

Видео
Идентификатор : 1601 (0x641)
Идентификатор меню : 5606 (0x15E6)
Формат : AVC
Формат/Информация : Advanced Video Codec
Профиль формата : Main@L4
Настройки формата : CABAC / 4 Ref Frames
Параметр CABAC формата : Да
Параметр RefFrames формата : 4 кадра
Параметр GOP формата : M=3, N=30
Идентификатор кодека : 27
Продолжительность : 1 ч. 1 м.
Битрейт : 4455 Кбит/сек
Ширина : 1440 пикселей
Высота : 1080 пикселей
Соотношение сторон : 16:9
Частота кадров : 25,000 кадров/сек
Стандарт вещания : Component
Цветовое пространство : YUV
Субдискретизация насыщенности : 4:2:0
Битовая глубина : 8 бит
Тип развёртки : Чересстрочная
Метод сохранения типа развёртки : Раздельные поля
Порядок развёртки : Верхнее поле первое
Бит/(Пиксели*Кадры) : 0.115
Размер потока : 1,91 Гбайт (90%)
Цветовой диапазон : Limited
Основные цвета : BT.709
Характеристики трансфера : BT.709
Коэффициенты матрицы : BT.709

Аудио
Идентификатор : 1602 (0x642)
Идентификатор меню : 5606 (0x15E6)
Формат : MPEG Audio
Версия формата : Version 1
Профиль формата : Layer 2
Идентификатор кодека : 3
Продолжительность : 1 ч. 1 м.
Вид битрейта : Постоянный
Битрейт : 256 Кбит/сек
Каналы : 2 канала
Частота : 48,0 КГц
Частота кадров : 41,667 кадра/сек (1152 SPF)
Метод сжатия : С потерями
Задержка видео : -618 мс.
Размер потока : 113 Мбайт (5%)
Язык : org

Меню
Идентификатор : 1600 (0x640)
Идентификатор меню : 5606 (0x15E6)
Продолжительность : 1 ч. 1 м.
Список : 1601 (0x641) (AVC) / 1602 (0x642) (MPEG Audio, org)
Язык : / org
Any questions - support@pro-jazz.com. Есть вопросы - support@pro-jazz.com
219
Нет комментариев. Ваш будет первым!