Вы используете незарегистрированную версию компонента "Вкладки"!

Поиск

2010 Christian Scott 5tet - Live at Nancy Jazz Pulsations [HDTV 1080i]

2010 Christian Scott 5tet - Live at Nancy Jazz Pulsations [HDTV 1080i]
Состав:
  • Christian Scott (trompette)
  • Jamire Williams (batterie)
  • Milton Fletcher (piano)
  • Kris Funn (contrebasse)
  • Matthew Stevens (guitare)

Жанр: Jazz
Продолжительность: 1h 0min
Год выпуска: 2010

Качество: HDTV
Контейнер: TS
Видео кодек: H.264
Аудио кодек: MPEG Audio
Видео: High@L4.0 AVC Bit rate : 4 582 Kbps 1440x1080 16/9 25.000 fps
Аудио: MPEG Audio 256 Kbps 2 channels Constant 48.0 KHz

Описание:

Выступление на фестивале джазовой музыки Nancy Jazz Pulsations 2010, записано на DM800HDse PVR (ruDREAM Line X).

Отчёт DVDInfo/MediaInfo/BDInfo
Общее
Идентификатор : 1 (0x1)
Полное имя : \\NASF8F4EB\Videos\HD Video\Christian Scott\2010 Christian Scott 5tet - Live at Nancy Jazz Pulsations\Christian Scott 5tet. Live at Nancy Jazz Pulsations 2010.ts
Формат : MPEG-TS
Размер файла : 2,16 Гбайт
Продолжительность : 1 ч. 0 м.
Режим общего битрейта : Переменный
Общий поток : 5093 Кбит/сек
Максимальный общий битрейт : 35,5 Мбит/сек

Видео
Идентификатор : 4113 (0x1011)
Идентификатор меню : 1 (0x1)
Формат : AVC
Формат/Информация : Advanced Video Codec
Профиль формата : Main@L4
Настройки формата : CABAC / 4 Ref Frames
Параметр CABAC формата : Да
Параметр RefFrames формата : 4 кадра
Идентификатор кодека : 27
Продолжительность : 1 ч. 0 м.
Вид битрейта : Переменный
Битрейт : 4582 Кбит/сек
Максимальный битрейт : 40,0 Мбит/сек
Ширина : 1440 пикселей
Высота : 1080 пикселей
Соотношение сторон : 16:9
Частота кадров : 25,000 кадров/сек
Стандарт вещания : Component
Цветовое пространство : YUV
Субдискретизация насыщенности : 4:2:0
Битовая глубина : 8 бит
Тип развёртки : Чересстрочная
Метод сохранения типа развёртки : Раздельные поля
Порядок развёртки : Верхнее поле первое
Бит/(Пиксели*Кадры) : 0.118
Размер потока : 1,95 Гбайт (90%)
Цветовой диапазон : Limited
Основные цвета : BT.709
Характеристики трансфера : BT.709
Коэффициенты матрицы : BT.709

Аудио
Идентификатор : 4352 (0x1100)
Идентификатор меню : 1 (0x1)
Формат : MPEG Audio
Версия формата : Version 1
Профиль формата : Layer 2
Идентификатор кодека : 4
Продолжительность : 1 ч. 0 м.
Вид битрейта : Постоянный
Битрейт : 256 Кбит/сек
Каналы : 2 канала
Частота : 48,0 КГц
Частота кадров : 41,667 кадра/сек (1152 SPF)
Метод сжатия : С потерями
Задержка видео : -160 мс.
Размер потока : 111 Мбайт (5%)
Язык : org
Any questions - support@pro-jazz.com. Есть вопросы - support@pro-jazz.com
244
Нет комментариев. Ваш будет первым!