Вы используете незарегистрированную версию компонента "Вкладки"!

Поиск

2006 Kurt Rosenwinkel - Solos. The Jazz Sessions [HDTV 720p]

2006 Kurt Rosenwinkel - Solos. The Jazz Sessions [HDTV 720p]
Описание:

Жанр: Jazz
Продолжительность: 49 min 28 sec
Год выпуска: 2006

Качество: HDTV
Контейнер: TS
Видео кодек: H.264
Аудио кодек: AC3
Видео: High@L4.0 AVC Bit rate: ~4,437 Mbps 1280x720 16/9 50.000 fps
Аудио: AC-3 448 Kbps 2 channels Constant 48.0 KHz

Записано с канала HD Suisse на DM800HDse PVR (ruDREAM Infinity X).

Отчёт DVDInfo/MediaInfo/BDInfo
Общее
Идентификатор : 1 (0x1)
Полное имя : \\NASF8F4EB\Videos\HD Video\Kurt Rosenwinkel\2006 Kurt Rosenwinkel - Solos. The Jazz Sessions\Kurt Rosenwinkel - Solos. The Jazz Sessions.ts
Формат : MPEG-TS
Размер файла : 1,78 Гбайт
Продолжительность : 49 м. 28 с.
Режим общего битрейта : Переменный
Общий поток : 5143 Кбит/сек
Максимальный общий битрейт : 35,5 Мбит/сек

Видео
Идентификатор : 4113 (0x1011)
Идентификатор меню : 1 (0x1)
Формат : AVC
Формат/Информация : Advanced Video Codec
Профиль формата : High@L4
Настройки формата : CABAC / 2 Ref Frames
Параметр CABAC формата : Да
Параметр RefFrames формата : 2 кадра
Параметр GOP формата : M=3, N=24
Идентификатор кодека : 27
Продолжительность : 49 м. 28 с.
Вид битрейта : Переменный
Битрейт : 4437 Кбит/сек
Максимальный битрейт : 13,2 Мбит/сек
Ширина : 1280 пикселей
Высота : 720 пикселей
Соотношение сторон : 16:9
Частота кадров : 50,000 кадров/сек
Цветовое пространство : YUV
Субдискретизация насыщенности : 4:2:0
Битовая глубина : 8 бит
Тип развёртки : Прогрессивная
Бит/(Пиксели*Кадры) : 0.096
Размер потока : 1,53 Гбайт (86%)
Цветовой диапазон : Limited
Основные цвета : BT.709
Характеристики трансфера : BT.709
Коэффициенты матрицы : BT.709

Аудио
Идентификатор : 4352 (0x1100)
Идентификатор меню : 1 (0x1)
Формат : AC-3
Формат/Информация : Audio Coding 3
Коммерческое название : Dolby Digital
Идентификатор кодека : 129
Продолжительность : 49 м. 28 с.
Вид битрейта : Постоянный
Битрейт : 448 Кбит/сек
Каналы : 2 канала
Channel layout : L R
Частота : 48,0 КГц
Частота кадров : 31,250 кадров/сек (1536 SPF)
Битовая глубина : 16 бит
Метод сжатия : С потерями
Задержка видео : -79 мс.
Размер потока : 159 Мбайт (9%)
Язык : English
ServiceKind/String : Complete Main
Any questions - support@pro-jazz.com. Есть вопросы - support@pro-jazz.com
214
Нет комментариев. Ваш будет первым!