Вы используете незарегистрированную версию компонента "Вкладки"!

Поиск

2010 Diana Krall - Au Festival de Jazz de Montreux [HDTV 720p]

2010 Diana Krall - Au Festival de Jazz de Montreux [HDTV 720p]
Состав:
  • Diana Krall- piano,vocals
  • Anthoni Wilson - guitar
  • Robert Hurst - double bass
  • Karriem Riggins - drums

Продолжительность: 52min
Год выпуска: 2010

Качество: HDTV
Контейнер: TS
Видео кодек: H.264
Аудио кодек: AC3
Видео: h.264,1280*720p,~10mbts,50fps
Аудио: ac-3,448kbts,48kHz,2ch

Отчёт DVDInfo/MediaInfo/BDInfo
Общее
Идентификатор : 8500 (0x2134)
Полное имя : \\NASF8F4EB\Videos\HD Video\Diana Krall\2010 Diana Krall au Festival de Jazz de Montreux\20110912 0007 - HD suisse - Jazzfestival Montreux 2010.ts
Формат : MPEG-TS
Размер файла : 3,04 Гбайт
Продолжительность : 52 м. 25 с.
Режим общего битрейта : Переменный
Общий поток : 8296 Кбит/сек

Видео
Идентификатор : 180 (0xB4)
Идентификатор меню : 990 (0x3DE)
Формат : AVC
Формат/Информация : Advanced Video Codec
Профиль формата : High@L4
Настройки формата : CABAC / 2 Ref Frames
Параметр CABAC формата : Да
Параметр RefFrames формата : 2 кадра
Параметр GOP формата : M=3, N=24
Идентификатор кодека : 27
Продолжительность : 52 м. 24 с.
Вид битрейта : Переменный
Битрейт : 6075 Кбит/сек
Максимальный битрейт : 13,2 Мбит/сек
Ширина : 1280 пикселей
Высота : 720 пикселей
Соотношение сторон : 16:9
Частота кадров : 50,000 кадров/сек
Цветовое пространство : YUV
Субдискретизация насыщенности : 4:2:0
Битовая глубина : 8 бит
Тип развёртки : Прогрессивная
Бит/(Пиксели*Кадры) : 0.132
Размер потока : 2,22 Гбайт (73%)
Encryption : TPS-Crypt or Viaccess
Цветовой диапазон : Limited
Основные цвета : BT.709
Характеристики трансфера : BT.709
Коэффициенты матрицы : BT.709

Аудио #1
Идентификатор : 131 (0x83)
Идентификатор меню : 990 (0x3DE)
Формат : AC-3
Формат/Информация : Audio Coding 3
Коммерческое название : Dolby Digital
Идентификатор кодека : 6
Продолжительность : 52 м. 25 с.
Вид битрейта : Постоянный
Битрейт : 448 Кбит/сек
Каналы : 2 канала
Channel layout : L R
Частота : 48,0 КГц
Частота кадров : 31,250 кадров/сек (1536 SPF)
Битовая глубина : 16 бит
Метод сжатия : С потерями
Задержка видео : -1 с. 36 мс.
Размер потока : 168 Мбайт (5%)
Язык : German
Язык, дополнительно : Clean effects
ServiceKind/String : Complete Main
Encryption : TPS-Crypt or Viaccess

Аудио #2
Идентификатор : 132 (0x84)
Идентификатор меню : 990 (0x3DE)
Формат : AC-3
Формат/Информация : Audio Coding 3
Коммерческое название : Dolby Digital
Идентификатор кодека : 6
Продолжительность : 52 м. 25 с.
Вид битрейта : Постоянный
Битрейт : 448 Кбит/сек
Каналы : 2 канала
Channel layout : L R
Частота : 48,0 КГц
Частота кадров : 31,250 кадров/сек (1536 SPF)
Битовая глубина : 16 бит
Метод сжатия : С потерями
Задержка видео : -1 с. 212 мс.
Размер потока : 168 Мбайт (5%)
Язык : French
Язык, дополнительно : Clean effects
ServiceKind/String : Complete Main
Encryption : TPS-Crypt or Viaccess

Аудио #3
Идентификатор : 133 (0x85)
Идентификатор меню : 990 (0x3DE)
Формат : AC-3
Формат/Информация : Audio Coding 3
Коммерческое название : Dolby Digital
Идентификатор кодека : 6
Продолжительность : 52 м. 25 с.
Вид битрейта : Постоянный
Битрейт : 448 Кбит/сек
Каналы : 2 канала
Channel layout : L R
Частота : 48,0 КГц
Частота кадров : 31,250 кадров/сек (1536 SPF)
Битовая глубина : 16 бит
Метод сжатия : С потерями
Задержка видео : -1 с. 128 мс.
Размер потока : 168 Мбайт (5%)
Язык : Italian
Язык, дополнительно : Clean effects
ServiceKind/String : Complete Main
Encryption : TPS-Crypt or Viaccess

Аудио #4
Идентификатор : 134 (0x86)
Идентификатор меню : 990 (0x3DE)
Формат : AC-3
Формат/Информация : Audio Coding 3
Коммерческое название : Dolby Digital
Идентификатор кодека : 6
Продолжительность : 52 м. 25 с.
Вид битрейта : Постоянный
Битрейт : 448 Кбит/сек
Каналы : 2 канала
Channel layout : L R
Частота : 48,0 КГц
Частота кадров : 31,250 кадров/сек (1536 SPF)
Битовая глубина : 16 бит
Метод сжатия : С потерями
Задержка видео : -1 с. 124 мс.
Размер потока : 168 Мбайт (5%)
Язык : English
Язык, дополнительно : Clean effects
ServiceKind/String : Complete Main
Encryption : TPS-Crypt or Viaccess

Меню
Идентификатор : 420 (0x1A4)
Идентификатор меню : 990 (0x3DE)
Продолжительность : 52 м. 25 с.
Список : 180 (0xB4) (AVC) / 131 (0x83) (AC-3, German) / 132 (0x84) (AC-3, French) / 133 (0x85) (AC-3, Italian) / 134 (0x86) (AC-3, English)
Язык : / German / French / Italian / English
Any questions - support@pro-jazz.com. Есть вопросы - support@pro-jazz.com
244
Нет комментариев. Ваш будет первым!