Вы используете незарегистрированную версию компонента "Вкладки"!

Поиск

2011 Joan Diaz & Perico Sambeat - Peaceful, Luz de Gas, Barselona [HDTV 1080i]

2011 Joan Diaz & Perico Sambeat - Peaceful, Luz de Gas, Barselona [HDTV 1080i]
Дата проведения концерта (записи):
20 ноября 2011
Место проведения:
42è Voll-Damm Festival Internacional de Jazz de Barcelona
Время звучания:
00:51:53
Состав:
  • Joan Díaz, piano and composition
  • Featuring Perico Sambeat, soprano sax
Видео:
AVC,1920*1080i (16:9), 5366 kbps, 25fps
Аудио#1:
MPEG2, 256kbps, 48kHz, 2ch
Отчёт DVDInfo/MediaInfo/BDInfo
Общее
Уникальный идентификатор : 48049586971105201603464067968703757907 (0x2426038AC6BEC7414899CB7E6F657E53)
Полное имя : \\NASF8F4EB\Videos\HD Video\Joan Diaz\2011 Joan Diaz & Perico Sambeat - Peaceful, Luz de Gas, Barselona\2011 Joan Diaz & Perico Sambeat - Peaceful, Luz de Gas, Barselona .mkv
Формат : Matroska
Версия формата : Version 2
Размер файла : 1,95 Гбайт
Продолжительность : 51 м. 53 с.
Общий поток : 5366 Кбит/сек
Программа кодирования : Lavf54.63.104
Библиотека кодирования : Lavf54.63.104

Видео
Идентификатор : 1
Формат : AVC
Формат/Информация : Advanced Video Codec
Профиль формата : Main@L4
Настройки формата : CABAC / 3 Ref Frames
Параметр CABAC формата : Да
Параметр RefFrames формата : 3 кадра
Параметр GOP формата : M=4, N=32
Идентификатор кодека : V_MPEG4/ISO/AVC
Продолжительность : 51 м. 53 с.
Битрейт : 5003 Кбит/сек
Ширина : 1920 пикселей
Высота : 1080 пикселей
Соотношение сторон : 16:9
Режим частоты кадров : Постоянный
Частота кадров : 25,000 кадров/сек
Стандарт вещания : Component
Цветовое пространство : YUV
Субдискретизация насыщенности : 4:2:0
Битовая глубина : 8 бит
Тип развёртки : Чересстрочная
Метод сохранения типа развёртки : Раздельные поля
Порядок развёртки : Верхнее поле первое
Бит/(Пиксели*Кадры) : 0.097
Размер потока : 1,81 Гбайт (93%)
Default : Нет
Forced : Нет
Цветовой диапазон : Limited
Основные цвета : BT.709
Характеристики трансфера : BT.709
Коэффициенты матрицы : BT.709

Аудио
Идентификатор : 2
Формат : MPEG Audio
Версия формата : Version 1
Профиль формата : Layer 2
Идентификатор кодека : A_MPEG/L2
Идентификатор кодека/Подсказка : MP2
Продолжительность : 51 м. 53 с.
Вид битрейта : Постоянный
Битрейт : 256 Кбит/сек
Каналы : 2 канала
Частота : 48,0 КГц
Метод сжатия : С потерями
Размер потока : 95,0 Мбайт (5%)
Язык : French
Default : Да
Forced : Нет
Any questions - support@pro-jazz.com. Есть вопросы - support@pro-jazz.com
367
Нет комментариев. Ваш будет первым!