Вы используете незарегистрированную версию компонента "Вкладки"!

Поиск

2015 Asif Kapadia - Amy [HDRip 720p]

2015 Asif Kapadia - Amy [HDRip 720p]
Описание:

Документальный фильм лауреата премии BAFTA Азифа Кападиа проливает свет на мир, в котором жила Эми Уайнхаус, через автобиографические тексты ее песен, видео из личных архивов семьи и друзей, а также интервью близких и коллег. На протяжении долгого времени велись поиски и сбор уникального материала для картины. В фильме прозвучат неизвестные ранее треки и появятся кадры с пленок, на которых юная Эми в окружении друзей исполняет свои первые песни. Режиссер собрал около сотни аудиоинтервью в ближайшем кругу певицы.

Дата/Год выпуска: 2015
Страна: Великобритания, США
Жанр: Документальный
Продолжительность: 02:07:59
Перевод: Профессиональный (многоголосый закадровый)
Русские субтитры: нет
Оригинальная аудиодорожка: английский
Режиссер: Азиф Кападиа / Asif Kapadia
Телеканал: 1 канал

Качество: HDRip
Формат: AVI
Видео: MPEG4, XviD, 720x384 (1.875), 23.976 fps, 1 792 Kbps (0.270 bit/pixel)
Аудио: AC-3, 48.0 KHz, 2 ch, 192 Kbps, CBR — русский
Аудио 2: AC-3, 48.0 KHz, 6 ch, 448 Kbps, CBR

Отчёт DVDInfo/MediaInfo/BDInfo
Общее
Полное имя : N:\Эми.avi
Формат : AVI
Формат/Информация : Audio Video Interleave
Профиль формата : OpenDML
Размер файла : 2,19 Гбайт
Продолжительность : 2 ч. 7 м.
Общий поток : 2450 Кбит/сек
Название фильма : Эми / Amy (2015)
Программа кодирования : VirtualDubMod 1.5.10.2 (build 2540/release)
Библиотека кодирования : VirtualDubMod build 2540/release
Авторское право : miha2154

Видео
Идентификатор : 0
Формат : MPEG-4 Visual
Профиль формата : Advanced Simple@L5
Параметр BVOP формата : 1
Параметр QPel формата : Нет
Параметр GMC формата : Без точки перехода
Параметр матрицы формата : Выборочная
Идентификатор кодека : XVID
Идентификатор кодека/Подсказка : XviD
Продолжительность : 2 ч. 7 м.
Битрейт : 1792 Кбит/сек
Ширина : 720 пикселей
Высота : 384 пикселя
Соотношение сторон : 1,85:1
Частота кадров : 23,976 (24000/1001) кадра/сек
Цветовое пространство : YUV
Субдискретизация насыщенности : 4:2:0
Битовая глубина : 8 бит
Тип развёртки : Прогрессивная
Метод сжатия : С потерями
Бит/(Пиксели*Кадры) : 0.270
Размер потока : 1,60 Гбайт (73%)
Библиотека кодирования : XviD 65

Аудио #1
Идентификатор : 1
Формат : AC-3
Формат/Информация : Audio Coding 3
Расширение режима : CM (complete main)
Параметр Endianness формата : Big
Идентификатор кодека : 2000
Продолжительность : 2 ч. 7 м.
Вид битрейта : Постоянный
Битрейт : 192 Кбит/сек
Каналы : 2 канала
Расположение каналов : Front: L R
Частота : 48,0 КГц
Частота кадров : 31,250 кадров/сек (1536 spf)
Метод сжатия : С потерями
Размер потока : 176 Мбайт (8%)
Выравнивание : Разделение по промежуткам
Продолжительность промежутка : 42 мс. (1,00 видеокадр)
Время предзагрузки промежутка : 500 мс.
Заголовок : Профессиональный (многоголосый закадровый) 1 канал

Аудио #2
Идентификатор : 2
Формат : AC-3
Формат/Информация : Audio Coding 3
Расширение режима : CM (complete main)
Параметр Endianness формата : Big
Идентификатор кодека : 2000
Продолжительность : 2 ч. 7 м.
Вид битрейта : Постоянный
Битрейт : 448 Кбит/сек
Каналы : 6 каналов
Расположение каналов : Front: L C R, Side: L R, LFE
Частота : 48,0 КГц
Частота кадров : 31,250 кадров/сек (1536 spf)
Метод сжатия : С потерями
Размер потока : 410 Мбайт (18%)
Выравнивание : Разделение по промежуткам
Продолжительность промежутка : 42 мс. (1,00 видеокадр)
Время предзагрузки промежутка : 500 мс.
Заголовок : Английский
Any questions - support@pro-jazz.com. Есть вопросы - support@pro-jazz.com
432
Нет комментариев. Ваш будет первым!