Вы используете незарегистрированную версию компонента "Вкладки"!

Поиск

2010 Django Reinhardt - Trois Doigts De Génie [DVB]

2010 Django Reinhardt - Trois Doigts De Génie [DVB]
Описание:

Год выпуска: 2010
Страна: Франция
Жанр: документальный, биография, история джаза
Продолжительность: 00:52:04
Перевод: Профессиональный (двухголосый) компания "Видеопродакшн" канал "Кто есть кто"
Русские субтитры: есть
Формат субтитров: prerendered (IDX+SUB)
Доп. информация о субтитрах: русские, английские, французские, немецкие, нидерландские, румынские
Оригинальная аудиодорожка: французский
Режиссер: Кристиан Кашио / Christian Cascio
Телеканал: TV5MONDE Europe

Доп. информация: Hot Bird (13.0°E) DVB-S.
Награда: приз l'Echo Jazz (германский эквивалент "Грэмми") 2012 в категории "Лучший DVD года".
Качество: DVB
Формат: MKV
Видео: MPEG Video 2, 720x576@1024x576 (16:9), 25 fps, ~2899 kbps avg, 0.280 bit/pixel
Аудио 1: MPEG Audio 2, 2 ch, 48 kHz, 192.00 kbps — русский
Аудио 2: MPEG Audio 2, 2 ch, 48 kHz, 192.00 kbps — французский

Отчёт DVDInfo/MediaInfo/BDInfo
Общее
Уникальный идентификатор : 212475974798951882074149142637715338756 (0x9FD9625D14F6B067A94F3AC1830B3604)
Полное имя : F:\My Torrents 3\[apreder]Django_Reinhardt_trois_doigts_de_genie(2010)DVB.mkv
Формат : Matroska
Версия формата : Version 2
Размер файла : 1,22 Гбайт
Продолжительность : 52 м.
Режим общего битрейта : Переменный
Общий поток : 3350 Кбит/сек
Дата кодирования : UTC 2015-11-22 16:05:27
Программа кодирования : mkvmerge v8.5.2 ('Crosses') 64bit
Библиотека кодирования : libebml v1.3.3 + libmatroska v1.4.4
Attachements : cover.jpg / cover_small.jpg
TITLE : Django Reinhardt, trois doigts de génie
DATE_RELEASED : 2010-00-00
LAW_RATING : 12+
GENRE : Documentary
DIRECTOR : Christian Cascio
KEYWORDS : rutracker.org

Видео
Идентификатор : 1
Формат : MPEG Video
Версия формата : Version 2
Профиль формата : Main@Main
Параметр BVOP формата : Да
Параметр матрицы формата : Выборочная
Параметр GOP формата : M=4, N=12
Format_Settings_PictureStructure : Frame
Идентификатор кодека : V_MPEG2
Идентификатор кодека/Информация : MPEG 1 or 2 Video
Продолжительность : 52 м.
Вид битрейта : Переменный
Битрейт : 2899 Кбит/сек
Ширина : 720 пикселей
Высота : 576 пикселей
Соотношение сторон : 16:9
Режим частоты кадров : Постоянный
Частота кадров : 25,000 кадров/сек
Стандарт вещания : PAL
Цветовое пространство : YUV
Субдискретизация насыщенности : 4:2:0
Битовая глубина : 8 бит
Тип развёртки : Чересстрочная
Порядок развёртки : Верхнее поле первое
Метод сжатия : С потерями
Бит/(Пиксели*Кадры) : 0.280
Временной код первого кадра : 00:00:00:00
Оригинал временного кода : Group of pictures header
Размер потока : 1,05 Гбайт (87%)
Default : Да
Forced : Нет

Аудио #1
Идентификатор : 2
Формат : MPEG Audio
Версия формата : Version 1
Профиль формата : Layer 2
Идентификатор кодека : A_MPEG/L2
Идентификатор кодека/Подсказка : MP2
Продолжительность : 52 м.
Вид битрейта : Постоянный
Битрейт : 192 Кбит/сек
Каналы : 2 канала
Частота : 48,0 КГц
Метод сжатия : С потерями
Задержка видео : 1 с. 0 мс.
Размер потока : 71,5 Мбайт (6%)
Язык : Russian
Default : Да
Forced : Нет

Аудио #2
Идентификатор : 3
Формат : MPEG Audio
Версия формата : Version 1
Профиль формата : Layer 2
Режим : Joint stereo
Расширение режима : Intensity Stereo + MS Stereo
Идентификатор кодека : A_MPEG/L2
Идентификатор кодека/Подсказка : MP2
Продолжительность : 52 м.
Вид битрейта : Постоянный
Битрейт : 192 Кбит/сек
Каналы : 2 канала
Частота : 48,0 КГц
Метод сжатия : С потерями
Размер потока : 71,5 Мбайт (6%)
Язык : French
Default : Нет
Forced : Нет

Текст #1
Идентификатор : 4
Формат : VobSub
Идентификатор кодека : S_VOBSUB
Идентификатор кодека/Информация : Picture based subtitle format used on DVDs
Язык : Russian
Default : Да
Forced : Нет

Текст #2
Идентификатор : 5
Формат : VobSub
Идентификатор кодека : S_VOBSUB
Идентификатор кодека/Информация : Picture based subtitle format used on DVDs
Язык : English
Default : Нет
Forced : Нет

Текст #3
Идентификатор : 6
Формат : VobSub
Идентификатор кодека : S_VOBSUB
Идентификатор кодека/Информация : Picture based subtitle format used on DVDs
Язык : French
Default : Нет
Forced : Нет

Текст #4
Идентификатор : 7
Формат : VobSub
Идентификатор кодека : S_VOBSUB
Идентификатор кодека/Информация : Picture based subtitle format used on DVDs
Язык : German
Default : Нет
Forced : Нет

Текст #5
Идентификатор : 8
Формат : VobSub
Идентификатор кодека : S_VOBSUB
Идентификатор кодека/Информация : Picture based subtitle format used on DVDs
Язык : Dutch
Default : Нет
Forced : Нет

Текст #6
Идентификатор : 9
Формат : VobSub
Идентификатор кодека : S_VOBSUB
Идентификатор кодека/Информация : Picture based subtitle format used on DVDs
Язык : Romanian
Default : Нет
Forced : Нет
Any questions - support@pro-jazz.com. Есть вопросы - support@pro-jazz.com
365
Нет комментариев. Ваш будет первым!