Вы используете незарегистрированную версию компонента "Вкладки"!

Поиск

2011 Amy Winehouse - A Last Goodbye [Blu-ray]

2011 Amy Winehouse - A Last Goodbye [Blu-ray]
Отчёт DVDInfo/MediaInfo/BDInfo
Disc Title: Amy.Winehouse.A.Last.Goodbye.2011.Blu-ray.1080i.AVC.LPCM.2.0-Kaliber_
Disc Size: 17 103 578 773 bytes
Protection: AACS
BD-Java: No
BDInfo: 0.5.6

Notes:

BDINFO HOME:
Cinema Squid
http://www.cinemasquid.com/blu-ray/tools/bdinfo

INCLUDES FORUMS REPORT FOR:
AVS Forum Blu-ray Audio and Video Specifications Thread
http://www.avsforum.com/avs-vb/showthread.php?t=1155731

********************
PLAYLIST: 00001.MPLS
********************

<--- BEGIN FORUMS PASTE --->
Код:
Total Video
Title Codec Length Movie Size Disc Size Bitrate Bitrate Main Audio Track Secondary Audio Track
----- ------ ------- -------------- -------------- ------- ------- ------------------ ---------------------
00001.MPLS AVC 1:10:50 16 861 501 440 17 103 578 773 31,74 27,84 LPCM 2.0 2304Kbps (48kHz/24-bit)
Код:
DISC INFO:

Disc Title: Amy.Winehouse.A.Last.Goodbye.2011.Blu-ray.1080i.AVC.LPCM.2.0-Kaliber_
Disc Size: 17 103 578 773 bytes
Protection: AACS
BD-Java: No
BDInfo: 0.5.6

PLAYLIST REPORT:

Name: 00001.MPLS
Length: 1:10:50 (h:m:s)
Size: 16 861 501 440 bytes
Total Bitrate: 31,74 Mbps

VIDEO:

Codec Bitrate Description
----- ------- -----------
MPEG-4 AVC Video 27840 kbps 1080i / 25 fps / 16:9 / High Profile 4.1

AUDIO:

Codec Language Bitrate Description
----- -------- ------- -----------
LPCM Audio English 2304 kbps 2.0 / 48 kHz / 2304 kbps / 24-bit

SUBTITLES:

Codec Language Bitrate Description
----- -------- ------- -----------
Presentation Graphics English 73,884 kbps
Presentation Graphics Chinese 66,524 kbps

FILES:

Name Time In Length Size Total Bitrate
---- ------- ------ ---- -------------
00003.M2TS 0:00:00.000 1:10:50.320 16 861 501 440 31 737

CHAPTERS:

Number Time In Length Avg Video Rate Max 1-Sec Rate Max 1-Sec Time Max 5-Sec Rate Max 5-Sec Time Max 10Sec Rate Max 10Sec Time Avg Frame Size Max Frame Size Max Frame Time
------ ------- ------ -------------- -------------- -------------- -------------- -------------- -------------- -------------- -------------- -------------- --------------
1 0:00:00.000 0:03:38.200 24 487 kbps 46 082 kbps 00:01:35.000 42 010 kbps 00:03:19.840 40 704 kbps 00:03:15.920 122 411 bytes 483 393 bytes 00:00:34.919
2 0:03:38.200 0:04:37.599 31 404 kbps 49 106 kbps 00:03:52.840 42 500 kbps 00:03:48.960 41 080 kbps 00:03:44.200 157 022 bytes 495 314 bytes 00:07:55.200
3 0:08:15.800 0:04:52.319 28 875 kbps 46 380 kbps 00:11:29.720 41 160 kbps 00:12:59.599 40 335 kbps 00:09:23.680 144 374 bytes 658 834 bytes 00:13:00.599
4 0:13:08.119 0:08:39.720 22 840 kbps 43 342 kbps 00:16:10.760 40 714 kbps 00:17:30.160 38 903 kbps 00:14:16.800 114 201 bytes 468 971 bytes 00:16:10.800
5 0:21:47.840 0:09:05.080 25 343 kbps 47 784 kbps 00:30:15.480 41 749 kbps 00:30:11.800 41 097 kbps 00:28:16.639 126 716 bytes 569 604 bytes 00:28:00.080
6 0:30:52.920 0:09:18.440 29 034 kbps 44 203 kbps 00:39:01.160 41 697 kbps 00:39:01.160 41 067 kbps 00:39:00.080 145 168 bytes 536 184 bytes 00:39:06.960
7 0:40:11.360 0:06:54.719 30 164 kbps 44 798 kbps 00:46:31.280 41 454 kbps 00:42:52.960 40 978 kbps 00:42:52.120 150 819 bytes 547 870 bytes 00:43:01.760
8 0:47:06.080 0:06:37.360 31 617 kbps 43 794 kbps 00:49:04.440 41 117 kbps 00:52:31.120 40 476 kbps 00:49:04.080 158 087 bytes 577 140 bytes 00:50:46.719
9 0:53:43.440 0:04:17.759 30 700 kbps 48 169 kbps 00:53:45.280 43 092 kbps 00:53:44.640 40 442 kbps 00:54:02.360 153 500 bytes 681 909 bytes 00:58:00.320
10 0:58:01.200 0:05:13.079 29 516 kbps 44 978 kbps 01:00:37.720 41 350 kbps 01:00:33.760 40 723 kbps 01:00:29.080 147 580 bytes 657 972 bytes 01:02:34.760
11 1:03:14.280 0:04:23.600 28 877 kbps 44 550 kbps 01:07:36.880 40 617 kbps 01:03:33.640 39 545 kbps 01:05:31.320 144 384 bytes 580 452 bytes 01:07:37.880
12 1:07:37.880 0:03:12.439 21 252 kbps 48 505 kbps 01:08:11.920 43 723 kbps 01:08:08.560 39 809 kbps 01:08:35.560 106 284 bytes 681 666 bytes 01:07:41.720

STREAM DIAGNOSTICS:

File PID Type Codec Language Seconds Bitrate Bytes Packets
---- --- ---- ----- -------- -------------- -------------- ------------- -----
00003.M2TS 4113 (0x1011) 0x1B AVC 4250,160 27 841 14 791 058 491 80 448 299
00003.M2TS 4352 (0x1100) 0x80 LPCM eng (English) 4250,160 2 310 1 227 492 416 6 800 512
00003.M2TS 4608 (0x1200) 0x90 PGS zho (Chinese) 4250,160 67 35 343 669 204 042
00003.M2TS 4609 (0x1201) 0x90 PGS eng (English) 4250,160 74 39 253 715 225 067
<---- END FORUMS PASTE ---->

QUICK SUMMARY:

Disc Title: Amy.Winehouse.A.Last.Goodbye.2011.Blu-ray.1080i.AVC.LPCM.2.0-Kaliber_
Disc Size: 17 103 578 773 bytes
Protection: AACS
BD-Java: No
Playlist: 00001.MPLS
Size: 16 861 501 440 bytes
Length: 1:10:50
Total Bitrate: 31,74 Mbps
Video: MPEG-4 AVC Video / 27840 kbps / 1080i / 25 fps / 16:9 / High Profile 4.1
Audio: English / LPCM Audio / 2.0 / 48 kHz / 2304 kbps / 24-bit
Subtitle: English / 73,884 kbps
Subtitle: Chinese / 66,524 kbps

********************
PLAYLIST: 00002.MPLS
********************

<--- BEGIN FORUMS PASTE --->
Код:
Total Video
Title Codec Length Movie Size Disc Size Bitrate Bitrate Main Audio Track Secondary Audio Track
----- ------ ------- -------------- -------------- ------- ------- ------------------ ---------------------
00002.MPLS AVC 0:00:25 110 880 768 17 103 578 773 35,42 33,66 DD AC3 2.0 224Kbps
Код:
DISC INFO:

Disc Title: Amy.Winehouse.A.Last.Goodbye.2011.Blu-ray.1080i.AVC.LPCM.2.0-Kaliber_
Disc Size: 17 103 578 773 bytes
Protection: AACS
BD-Java: No
BDInfo: 0.5.6

PLAYLIST REPORT:

Name: 00002.MPLS
Length: 0:00:25 (h:m:s)
Size: 110 880 768 bytes
Total Bitrate: 35,42 Mbps

VIDEO:

Codec Bitrate Description
----- ------- -----------
MPEG-4 AVC Video 33655 kbps 1080p / 24 fps / 16:9 / High Profile 4.1

AUDIO:

Codec Language Bitrate Description
----- -------- ------- -----------
Dolby Digital Audio Chinese 224 kbps 2.0 / 48 kHz / 224 kbps / DN -4dB

FILES:

Name Time In Length Size Total Bitrate
---- ------- ------ ---- -------------
00004.M2TS 0:00:00.000 0:00:24.291 110 862 336 36 510
00005.M2TS 0:00:24.291 0:00:00.750 18 432 197

CHAPTERS:

Number Time In Length Avg Video Rate Max 1-Sec Rate Max 1-Sec Time Max 5-Sec Rate Max 5-Sec Time Max 10Sec Rate Max 10Sec Time Avg Frame Size Max Frame Size Max Frame Time
------ ------- ------ -------------- -------------- -------------- -------------- -------------- -------------- -------------- -------------- -------------- --------------
1 0:00:00.000 0:00:25.041 33 655 kbps 59 988 kbps 00:00:18.958 40 708 kbps 00:00:15.083 37 810 kbps 00:00:10.124 175 287 bytes 690 145 bytes 00:00:08.500

STREAM DIAGNOSTICS:

File PID Type Codec Language Seconds Bitrate Bytes Packets
---- --- ---- ----- -------- -------------- -------------- ------------- -----
00004.M2TS 4113 (0x1011) 0x1B AVC 24,125 34 931 105 339 489 572 757
00004.M2TS 4352 (0x1100) 0x81 AC3 zho (Chinese) 24,125 226 680 960 3 800
00005.M2TS 4113 (0x1011) 0x1B AVC 0,625 99 7 735 48
<---- END FORUMS PASTE ---->

QUICK SUMMARY:

Disc Title: Amy.Winehouse.A.Last.Goodbye.2011.Blu-ray.1080i.AVC.LPCM.2.0-Kaliber_
Disc Size: 17 103 578 773 bytes
Protection: AACS
BD-Java: No
Playlist: 00002.MPLS
Size: 110 880 768 bytes
Length: 0:00:25
Total Bitrate: 35,42 Mbps
Video: MPEG-4 AVC Video / 33655 kbps / 1080p / 24 fps / 16:9 / High Profile 4.1
Audio: Chinese / Dolby Digital Audio / 2.0 / 48 kHz / 224 kbps / DN -4dB
Any questions - support@pro-jazz.com. Есть вопросы - support@pro-jazz.com
475
Нет комментариев. Ваш будет первым!