Вы используете незарегистрированную версию компонента "Вкладки"!

Поиск

2016 Robert Glasper Trio - Festival international de jazz de Melbourne [HDTV 1080i]

2016 Robert Glasper Trio - Festival international de jazz de Melbourne [HDTV 1080i]
Дата проведения концерта (записи):
26 ноября 2016
Место проведения:
Forum Melbourne
Время звучания:
00:56:14
Состав:
  • Robert Glasper - piano
  • Vicente Archer - basse
  • Damion Reid - batterie
Видео:
AVC, 1920x1080 (16:9), 4931 kbps, 25 fps
Аудио#1:
MP2, 256 kbps, 48 kHz, 2ch
Описание:

Выступление американского jazz, soul кейбордиста и музыкального продюсера Роберта Глеспера на сцене Forum Melbourne в рамках международного джазового фестиваля Melbourne International Jazz Festival в австралийском Мельбурне june 04, 2016

Отчёт DVDInfo/MediaInfo/BDInfo
Общее
Идентификатор : 1 (0x1)
Полное имя : \\NASF8F4EB\Videos\HD Video\Robert Glasper\2016 Robert Glasper Trio - At Melbourne Jazz Fest\2016 Robert Glasper Trio - At Melbourne Jazz Fest.ts
Формат : MPEG-TS
Размер файла : 2,15 Гбайт
Продолжительность : 56 м. 29 с.
Режим общего битрейта : Переменный
Общий поток : 5459 Кбит/сек

Видео
Идентификатор : 203 (0xCB)
Идентификатор меню : 20103 (0x4E87)
Формат : AVC
Формат/Информация : Advanced Video Codec
Профиль формата : High@L4
Настройки формата : CABAC / 4 Ref Frames
Параметр CABAC формата : Да
Параметр RefFrames формата : 4 кадра
Параметр GOP формата : M=4, N=28
Идентификатор кодека : 27
Продолжительность : 56 м. 29 с.
Битрейт : 4931 Кбит/сек
Ширина : 1920 пикселей
Высота : 1080 пикселей
Соотношение сторон : 16:9
Частота кадров : 25,000 кадров/сек
Стандарт вещания : Component
Цветовое пространство : YUV
Субдискретизация насыщенности : 4:2:0
Битовая глубина : 8 бит
Тип развёртки : Чересстрочная
Метод сохранения типа развёртки : Раздельные поля
Порядок развёртки : Верхнее поле первое
Бит/(Пиксели*Кадры) : 0.095
Размер потока : 1,95 Гбайт (90%)
Цветовой диапазон : Limited
Основные цвета : BT.709
Характеристики трансфера : BT.709
Коэффициенты матрицы : BT.709

Аудио
Идентификатор : 303 (0x12F)
Идентификатор меню : 20103 (0x4E87)
Формат : MPEG Audio
Версия формата : Version 1
Профиль формата : Layer 2
Идентификатор кодека : 3
Продолжительность : 56 м. 29 с.
Вид битрейта : Постоянный
Битрейт : 256 Кбит/сек
Каналы : 2 канала
Частота : 48,0 КГц
Частота кадров : 41,667 кадра/сек (1152 SPF)
Метод сжатия : С потерями
Размер потока : 103 Мбайт (5%)
Язык : Russian
Any questions - support@pro-jazz.com. Есть вопросы - support@pro-jazz.com
401
Нет комментариев. Ваш будет первым!