Вы используете незарегистрированную версию компонента "Вкладки"!

Поиск

2018 Ron Carter Trio - Live at Jazz à Vienne Festival [HDTV 1080i]

2018 Ron Carter Trio - Live at Jazz à Vienne Festival [HDTV 1080i]
Дата проведения концерта (записи):
5 июля 2018
Место проведения:
Théâtre Antique, Vienne, France
Состав:
  • Ron Carter - bass
  • Russell L. Malone - guitar
  • Donald Vega - piano
Видео:
4 923 Kbps, 1920*1080 (16:9), at 25.000 fps, AVC (Component) (High@L4.0) (CABAC / 4 Ref Frames)
Аудио#1:
Russian, 256 Kbps, 48.0 KHz, 2 channels, MPEG Audio (Version 1) (Layer 2)
Отчёт DVDInfo/MediaInfo/BDInfo
General
ID : 1 (0x1)
Complete name : C:\rutracker.org_mezzo live HD\mezzo live HD_Ron Carter Trio - Jazz a Vienne 2018.ts
Format : MPEG-TS
File size : 2.28 GiB
Duration : 59mn 51s
Overall bit rate mode : Variable
Overall bit rate : 5 451 Kbps

Video
ID : 203 (0xCB)
Menu ID : 20103 (0x4E87)
Format : AVC
Format/Info : Advanced Video Codec
Format profile : High@L4.0
Format settings, CABAC : Yes
Format settings, ReFrames : 4 frames
Format settings, GOP : M=4, N=28
Codec ID : 27
Duration : 59mn 51s
Bit rate : 4 923 Kbps
Width : 1 920 pixels
Height : 1 080 pixels
Display aspect ratio : 16:9
Frame rate : 25.000 fps
Standard : Component
Color space : YUV
Chroma subsampling : 4:2:0
Bit depth : 8 bits
Scan type : Interlaced
Scan order : Top Field First
Bits/(Pixel*Frame) : 0.095
Stream size : 2.06 GiB (90%)
Color primaries : BT.709
Transfer characteristics : BT.709
Matrix coefficients : BT.709

Audio
ID : 303 (0x12F)
Menu ID : 20103 (0x4E87)
Format : MPEG Audio
Format version : Version 1
Format profile : Layer 2
Codec ID : 3
Duration : 59mn 51s
Bit rate mode : Constant
Bit rate : 256 Kbps
Channel(s) : 2 channels
Sampling rate : 48.0 KHz
Compression mode : Lossy
Stream size : 110 MiB (5%)
Language : Russian
Any questions - support@pro-jazz.com. Есть вопросы - support@pro-jazz.com
1596
Нет комментариев. Ваш будет первым!