Вы используете незарегистрированную версию компонента "Вкладки"!

Поиск

2013 Dave Holland 4tet Prism - Live at Jazz en Tete [HDTV 1080p]

2013 Dave Holland 4tet Prism - Live at Jazz en Tete [HDTV 1080p]
Дата проведения концерта (записи):
17 октября 2013
Место проведения:
Jazz en Tete Festival
Время звучания:
01:05:51
Состав:
Видео:
1920x1080 (16:9), 25.00 fps, AVC, 10.6 Мбит
Аудио#1:
48.0 KHz, AAC-LC, 2 ch, stereo, 128-384 Kbps VBR
Отчёт DVDInfo/MediaInfo/BDInfo
Полное имя : C:\Users\Валера\Videos\MY MUSIC\Dave Holland 4tet (Prism) - LaJeT 2013\Dave Holland 4tet (Prism) - Live at Jazz en Tete 2013.mp4
Формат : MPEG-4
Профиль формата : Base Media / Version 2
Идентификатор кодека : mp42
Размер файла : 5,29 Гбайт
Продолжительность : 1 ч. 5 м.
Режим общего битрейта : Переменный
Общий поток : 11,5 Мбит/сек
Дата кодирования : UTC 2014-04-21 09:28:24
Дата пометки : UTC 2014-04-21 09:28:24

Видео
Идентификатор : 2
Формат : AVC
Формат/Информация : Advanced Video Codec
Профиль формата : Main@L4.0
Параметр CABAC формата : Да
Параметр ReFrames формата : 2 кадра
Параметр GOP формата : M=3, N=30
Идентификатор кодека : avc1
Идентификатор кодека/Информация : Advanced Video Coding
Продолжительность : 1 ч. 5 м.
Продолжительность оригинала : 1 ч. 5 м.
Вид битрейта : Переменный
Битрейт : 10,6 Мбит/сек
Максимальный битрейт : 12,0 Мбит/сек
Ширина : 1920 пикселей
Высота : 1088 пикселей
Высота оригинала : 1080 пикселей
Соотношение сторон : 16:9
Соотношение сторон в оригинале : 16:9
Режим частоты кадров : Постоянный
Частота кадров : 25,000 кадров/сек
Частота кадров в оригинале : 12,500 кадров/сек
Цветовое пространство : YUV
Субдискретизация насыщенности : 4:2:0
Битовая глубина : 8 бит
Тип развёртки : Прогрессивная
Бит/(Пиксели*Кадры) : 0.204
Размер потока : 4,90 Гбайт (93%)
Размер потока оригинала : 5,11 Гбайт (97%)
Язык : English
Дата кодирования : UTC 2014-04-21 09:28:24
Дата пометки : UTC 2014-04-21 09:28:24

Аудио
Идентификатор : 1
Формат : AAC
Формат/Информация : Advanced Audio Codec
Профиль формата : LC
Идентификатор кодека : 40
Продолжительность : 1 ч. 5 м.
Продолжительность оригинала : 1 ч. 5 м.
Вид битрейта : Постоянный
Битрейт : 384 Кбит/сек
Номинальный битрейт : 128 Кбит/сек
Каналы : 2 канала
Расположение каналов : Front: L R
Частота : 48,0 КГц
Метод сжатия : С потерями
Размер потока : 181 Мбайт (3%)
Размер потока оригинала : 181 Мбайт (3%)
Язык : English
Дата кодирования : UTC 2014-04-21 09:28:24
Дата пометки : UTC 2014-04-21 09:28:24
mdhd_Duration : 3951013
Any questions - support@pro-jazz.com. Есть вопросы - support@pro-jazz.com
340
Нет комментариев. Ваш будет первым!